<?xml version="1.0" standalone="no"?>
<!DOCTYPE svg PUBLIC "-//W3C//DTD SVG 1.1//EN" "http://www.w3.org/Graphics/SVG/1.1/DTD/svg11.dtd" >
<svg xmlns="http://www.w3.org/2000/svg" xmlns:xlink="http://www.w3.org/1999/xlink" version="1.1">
<metadata>
Created by FontForge 20201107 at Thu Mar 27 11:01:30 2014
 By Jimmy Wärting
Copyright (c) 2014 by Intelligent Design - Kostas Bartsokas. All rights reserved.
</metadata>
<defs>
<font id="ZonaPro-SemiBold" horiz-adv-x="670" >
  <font-face 
    font-family="Zona Pro"
    font-weight="600"
    font-stretch="normal"
    units-per-em="1000"
    panose-1="2 1 7 3 4 0 2 2 0 4"
    ascent="825"
    descent="-175"
    x-height="542"
    cap-height="705"
    bbox="-276 -294 1245 1001"
    underline-thickness="20"
    underline-position="-133"
    stemh="51"
    stemv="55"
    unicode-range="U+0020-FB04"
  />
<missing-glyph horiz-adv-x="500" 
 />
    <glyph glyph-name="f_i" unicode="fi" horiz-adv-x="629" 
d="M498 614c-38 0 -70 31 -70 69c0 39 32 70 70 70c39 0 70 -31 70 -70c0 -38 -31 -69 -70 -69zM384 749v-88c-17 3 -36 6 -63 6c-84 0 -98 -45 -98 -106v-19h335v-542h-119v446h-216v-466c0 -111 -72 -168 -161 -168c-31 0 -56 3 -75 7v94c7 0 14 -1 22 -1
c71 0 94 33 94 123v411h-81v96h81v40c0 148 101 178 192 178c43 0 76 -7 89 -11z" />
    <glyph glyph-name="f_l" unicode="fl" horiz-adv-x="642" 
d="M339 760c129 0 233 -68 233 -210v-550h-120v518c0 119 -46 145 -113 145c-81 0 -116 -31 -116 -121h155v-96h-155v-467c0 -125 -85 -167 -181 -167c-22 0 -40 3 -55 7v93c88 0 116 19 116 123v411h-81v96h81c0 130 61 218 236 218z" />
    <glyph glyph-name="f_f" unicode="ff" horiz-adv-x="771" 
d="M765 743v-88c-17 3 -37 6 -63 6c-81 0 -99 -32 -99 -95v-24h157v-96h-157v-449c0 -120 -79 -167 -173 -167c-24 0 -45 3 -62 6v94c7 0 14 -1 22 -1c71 0 94 33 94 123v394h-261v-467c0 -120 -79 -167 -174 -167c-24 0 -45 3 -62 7v93c88 0 116 19 116 123v411h-81v96h81
v25c0 126 78 169 169 169c62 0 101 -14 112 -17v-88c-27 4 -53 7 -83 7c-62 0 -78 -24 -78 -79v-17h261v43c0 136 78 175 168 175c63 0 102 -14 113 -17z" />
    <glyph glyph-name="f_f_i" unicode="ffi" horiz-adv-x="1022" 
d="M892 614c-39 0 -70 31 -70 69c0 39 31 70 70 70c38 0 69 -31 69 -70c0 -38 -31 -69 -69 -69zM832 0v446h-229v-448c0 -112 -71 -168 -160 -168c-31 0 -56 3 -75 7v94c7 -1 14 -1 22 -1c71 0 94 32 94 123v393h-261v-466c0 -111 -72 -168 -161 -168c-31 0 -56 3 -75 7v94
c7 0 14 -1 22 -1c71 0 94 33 94 123v411h-81v96h81v24c0 132 82 169 177 169c57 0 94 -13 104 -16v-88c-27 4 -53 7 -83 7c-62 0 -78 -25 -78 -81v-15h261v39c0 144 82 178 177 178c57 0 94 -13 104 -16v-88c-17 3 -37 6 -63 6c-85 0 -99 -38 -99 -101v-18h349v-542h-120z
" />
    <glyph glyph-name="f_f_l" unicode="ffl" horiz-adv-x="1023" 
d="M720 760c112 0 233 -56 233 -210v-550h-120v518c0 109 -47 145 -113 145c-62 0 -117 -21 -117 -91v-30h156v-96h-156v-449c0 -111 -71 -168 -160 -168c-32 0 -56 3 -75 7v94c7 0 14 -1 22 -1c71 0 94 33 94 123v394h-261v-467c0 -111 -72 -168 -161 -168
c-31 0 -56 4 -75 8v93c88 0 116 19 116 123v411h-81v96h81v27c0 112 72 169 161 169c72 0 111 -16 120 -19v-88c-27 4 -53 7 -83 7c-53 0 -78 -24 -78 -74v-22h261v32c0 110 82 186 236 186z" />
    <glyph glyph-name="f_igrave" unicode="f&#xec;" horiz-adv-x="629" 
d="M467 589l-112 99c-107 0 -132 -57 -132 -115v-31h335v-542h-119v446h-216v-466c0 -111 -72 -168 -161 -168c-31 0 -56 3 -75 7v94c7 0 14 -1 22 -1c71 0 94 33 94 123v411h-81v96h81v51c0 155 142 167 250 167h58l134 -171h-78z" />
    <glyph glyph-name=".notdef" horiz-adv-x="500" 
 />
    <glyph glyph-name="NULL" horiz-adv-x="0" 
 />
    <glyph glyph-name="CR" horiz-adv-x="277" 
 />
    <glyph glyph-name="space" unicode=" " horiz-adv-x="322" 
 />
    <glyph glyph-name="dotlessi" unicode="&#x131;" horiz-adv-x="261" 
d="M70 0v542h120v-542h-120z" />
    <glyph glyph-name="fraction" unicode="&#x2044;" horiz-adv-x="473" 
d="M448 701h89l-483 -701h-89z" />
    <glyph glyph-name="Lslash" unicode="&#x141;" horiz-adv-x="605" 
d="M-8 250v114l85 25v316h123v-280l210 61v-113l-210 -62v-210h373v-101h-496v275z" />
    <glyph glyph-name="lslash" unicode="&#x142;" horiz-adv-x="344" 
d="M-10 249v114l104 30v361h123v-325l113 34v-113l-113 -34v-316h-123v279z" />
    <glyph glyph-name="exclam" unicode="!" horiz-adv-x="261" 
d="M172 222h-82l-21 482h123zM131 132c39 0 70 -31 70 -70c0 -38 -31 -69 -70 -69s-69 31 -69 69c0 39 30 70 69 70z" />
    <glyph glyph-name="quotedbl" unicode="&#x22;" horiz-adv-x="413" 
d="M235 390l20 310h130l-86 -310h-64zM35 390l19 310h130l-86 -310h-63z" />
    <glyph glyph-name="numbersign" unicode="#" horiz-adv-x="689" 
d="M451 540l25 153h89l-26 -153h120v-100h-136l-29 -167h133v-100h-149l-30 -174h-88l29 174h-156l-29 -174h-90l30 174h-114v100h130l29 167h-127v100h144l26 153h88l-26 -153h157zM406 273l28 167h-156l-28 -167h156z" />
    <glyph glyph-name="dollar" unicode="$" horiz-adv-x="650" 
d="M360 605v-199c145 -34 248 -80 248 -205c0 -126 -99 -202 -248 -209v-63h-57v63c-96 2 -153 15 -253 66l46 93c80 -40 133 -52 207 -54v206c-136 33 -244 74 -244 204c0 116 92 201 244 206v40h57v-42c84 -6 162 -28 220 -55l-50 -95c-47 21 -112 38 -170 44zM183 516
c0 -51 47 -74 120 -96v188c-76 -2 -120 -40 -120 -92zM483 190c0 54 -49 77 -123 98v-191c75 3 123 37 123 93z" />
    <glyph glyph-name="percent" unicode="%" horiz-adv-x="899" 
d="M397 516c0 -123 -80 -196 -178 -196s-178 73 -178 196c0 124 80 196 178 196s178 -72 178 -196zM121 516c0 -71 44 -118 98 -118s98 47 98 118c0 72 -44 119 -98 119s-98 -47 -98 -119zM680 384c98 0 178 -71 178 -196c0 -123 -80 -195 -178 -195s-178 72 -178 195
c0 125 80 196 178 196zM680 70c54 0 98 48 98 118c0 72 -44 119 -98 119s-98 -47 -98 -119c0 -70 44 -118 98 -118zM646 701h89l-483 -701h-89z" />
    <glyph glyph-name="ampersand" unicode="&#x26;" horiz-adv-x="688" 
d="M578 335l86 -28c-10 -16 -51 -91 -112 -163l88 -86l-72 -65l-82 81c-53 -46 -116 -81 -184 -81c-175 0 -266 78 -266 198c0 79 50 145 151 188c-44 45 -69 89 -69 148c0 115 84 185 192 185c121 0 197 -79 197 -174c0 -75 -50 -153 -159 -194l139 -136
c38 41 72 97 91 127zM310 626c-54 0 -91 -49 -91 -103c0 -55 41 -90 68 -117c65 22 120 59 120 121c0 51 -34 99 -97 99zM302 87c46 0 87 22 120 52l-170 169c-67 -27 -97 -67 -97 -113c0 -56 51 -108 147 -108z" />
    <glyph glyph-name="quotesingle" unicode="'" horiz-adv-x="233" 
d="M45 390l19 310h132l-85 -310h-66z" />
    <glyph glyph-name="parenleft" unicode="(" horiz-adv-x="415" 
d="M166 300c0 -154 82 -275 214 -354l-40 -67c-175 89 -287 233 -287 421s112 332 287 422l40 -67c-132 -80 -214 -201 -214 -355z" />
    <glyph glyph-name="parenright" unicode=")" horiz-adv-x="415" 
d="M250 300c0 154 -81 275 -214 355l40 67c175 -90 287 -234 287 -422s-112 -332 -287 -421l-40 67c133 79 214 200 214 354z" />
    <glyph glyph-name="asterisk" unicode="*" horiz-adv-x="417" 
d="M378 462l-31 -53l-112 71l6 -133h-62l6 133l-112 -72l-31 54l118 61l-118 62l31 53l112 -71l-6 133h62l-6 -133l112 72l31 -54l-118 -61z" />
    <glyph glyph-name="plus" unicode="+" horiz-adv-x="640" 
d="M573 421v-99h-203v-202h-98v202h-203v99h203v202h98v-202h203z" />
    <glyph glyph-name="comma" unicode="," horiz-adv-x="223" 
d="M110 132c18 0 70 -8 70 -87c0 -138 -97 -174 -153 -175l-18 51c25 2 85 22 90 73c-32 5 -58 32 -58 70c0 39 34 68 69 68z" />
    <glyph glyph-name="hyphen" unicode="-" horiz-adv-x="408" 
d="M364 382v-99h-320v99h320z" />
    <glyph glyph-name="period" unicode="." horiz-adv-x="218" 
d="M178 62c0 -39 -31 -70 -70 -70c-38 0 -69 31 -69 70s31 70 69 70c39 0 70 -31 70 -70z" />
    <glyph glyph-name="slash" unicode="/" horiz-adv-x="486" 
d="M-33 -128l443 926h100l-443 -926h-100z" />
    <glyph glyph-name="zero" unicode="0" horiz-adv-x="730" 
d="M366 711c177 0 321 -132 321 -359s-144 -359 -321 -359c-176 0 -321 132 -321 359s145 359 321 359zM366 599c-109 0 -198 -99 -198 -247s89 -247 198 -247c110 0 198 99 198 247s-88 247 -198 247z" />
    <glyph glyph-name="one" unicode="1" horiz-adv-x="402" 
d="M247 705h61v-705h-124v588l-137 -30l-24 97z" />
    <glyph glyph-name="two" unicode="2" horiz-adv-x="624" 
d="M261 104h319v-104h-538v46c143 216 419 202 419 395c0 90 -70 161 -154 161c-72 0 -155 -55 -156 -160v-8h-109v16c0 151 124 262 267 262c142 0 268 -114 268 -263c0 -245 -241 -268 -316 -345z" />
    <glyph glyph-name="three" unicode="3" horiz-adv-x="617" 
d="M564 649l-185 -233c119 -19 201 -88 201 -199c0 -141 -112 -225 -280 -225c-105 0 -169 9 -255 48l45 94c73 -30 135 -38 214 -38c94 0 156 49 156 119c0 50 -35 124 -172 125h-47l-22 52l168 209h-317v104h494v-56z" />
    <glyph glyph-name="four" unicode="4" horiz-adv-x="669" 
d="M537 265h101v-102h-101v-163h-120v163h-371l-23 55l420 487h94v-440zM196 265h221v255z" />
    <glyph glyph-name="five" unicode="5" horiz-adv-x="623" 
d="M348 455c149 0 235 -100 235 -238c0 -141 -111 -225 -280 -225c-105 0 -170 8 -256 45l44 95c73 -29 137 -36 216 -36c93 0 157 52 157 130c0 65 -41 136 -151 136c-64 0 -158 -18 -182 -27l-51 29l6 340h466v-103h-362l-1 -169c37 12 99 23 159 23z" />
    <glyph glyph-name="six" unicode="6" horiz-adv-x="663" 
d="M363 456c121 0 255 -67 255 -226c0 -149 -128 -237 -286 -237c-155 0 -280 129 -280 316c0 290 131 403 295 403c105 0 174 -30 238 -73l-53 -89c-47 33 -104 58 -178 58c-117 0 -192 -95 -192 -232c37 46 124 80 201 80zM336 354c-84 0 -160 -50 -160 -121
c0 -65 72 -134 156 -134c93 0 166 56 166 133c0 72 -73 122 -162 122z" />
    <glyph glyph-name="seven" unicode="7" horiz-adv-x="595" 
d="M48 705h516v-57l-330 -648h-133l307 601h-360v104z" />
    <glyph glyph-name="eight" unicode="8" horiz-adv-x="633" 
d="M318 712c132 0 241 -58 241 -188c0 -64 -39 -120 -93 -143c78 -28 132 -95 132 -177c0 -142 -126 -211 -280 -211c-155 0 -281 69 -281 211c0 82 54 148 132 177c-52 20 -93 79 -93 143c0 130 109 188 242 188zM318 607c-73 0 -134 -31 -134 -86c0 -65 56 -97 134 -97
c77 0 133 32 133 97c0 55 -60 86 -133 86zM318 99c89 0 162 39 162 108c0 74 -69 113 -162 113c-94 0 -163 -39 -163 -113c0 -69 73 -108 163 -108z" />
    <glyph glyph-name="nine" unicode="9" horiz-adv-x="662" 
d="M331 350c82 0 156 52 156 122c0 71 -77 134 -156 134c-90 0 -162 -51 -162 -133c0 -78 73 -123 162 -123zM314 249c-126 0 -265 67 -265 225c0 154 126 238 282 238c155 0 279 -130 279 -316c0 -295 -125 -403 -294 -403c-105 0 -174 30 -238 73l54 89
c46 -33 103 -58 177 -58c121 0 195 95 195 232c-24 -42 -116 -80 -190 -80z" />
    <glyph glyph-name="colon" unicode=":" horiz-adv-x="246" 
d="M121 402c-39 0 -70 31 -70 70c0 38 31 69 70 69s70 -31 70 -69c0 -39 -31 -70 -70 -70zM121 132c39 0 70 -31 70 -70s-31 -70 -70 -70s-70 31 -70 70s31 70 70 70z" />
    <glyph glyph-name="semicolon" unicode=";" horiz-adv-x="245" 
d="M121 402c-39 0 -70 31 -70 70c0 38 31 69 70 69c38 0 70 -31 70 -69c0 -39 -32 -70 -70 -70zM120 132c42 0 71 -29 71 -84c0 -91 -41 -177 -153 -178l-17 51c47 2 83 33 89 73c-33 5 -58 33 -58 68c0 39 31 70 68 70z" />
    <glyph glyph-name="less" unicode="&#x3c;" horiz-adv-x="627" 
d="M549 618v-113l-328 -155l328 -155v-112l-488 239v56z" />
    <glyph glyph-name="equal" unicode="=" horiz-adv-x="631" 
d="M73 161v100h483v-100h-483zM73 547h483v-100h-483v100z" />
    <glyph glyph-name="greater" unicode="&#x3e;" horiz-adv-x="628" 
d="M82 83v112l328 155l-328 155v113l489 -240v-56z" />
    <glyph glyph-name="question" unicode="?" horiz-adv-x="540" 
d="M248 712c155 0 257 -84 257 -227c0 -106 -81 -189 -228 -189l-5 -92h-85l-7 139l12 28h41c100 0 164 43 164 115c0 78 -64 123 -145 123c-77 0 -135 -10 -198 -41l-41 93c80 42 138 51 235 51zM229 132c39 0 70 -31 70 -70s-31 -70 -70 -70s-70 31 -70 70s31 70 70 70z
" />
    <glyph glyph-name="at" unicode="@" horiz-adv-x="965" 
d="M486 724c242 0 439 -195 439 -437c0 -132 -95 -236 -218 -236c-80 0 -123 40 -128 103c-39 -57 -99 -97 -165 -97c-120 0 -194 101 -194 211c0 134 99 265 229 265c72 0 127 -42 152 -101l13 81l97 -15s-42 -214 -42 -294c0 -50 12 -97 65 -97c97 0 139 97 139 179
c0 215 -171 387 -387 387s-389 -173 -389 -388c0 -216 173 -389 389 -389c97 0 186 32 254 91c30 -30 32 -33 34 -35c-77 -67 -178 -107 -288 -107c-243 0 -440 197 -440 440c0 242 197 439 440 439zM569 316c0 65 -46 116 -107 116c-70 0 -135 -66 -135 -151
c0 -67 45 -120 107 -120c70 0 133 68 135 155z" />
    <glyph glyph-name="A" unicode="A" horiz-adv-x="757" 
d="M614 0l-70 156h-332l-68 -156h-130l333 705h63l333 -705h-129zM378 532l-122 -276h245z" />
    <glyph glyph-name="B" unicode="B" horiz-adv-x="706" 
d="M530 560c0 -42 -18 -86 -52 -114c115 -14 190 -112 190 -223c0 -117 -74 -223 -213 -223h-378v705h299c85 0 154 -64 154 -145zM197 601v-143h151c52 0 72 39 72 71c0 41 -34 72 -88 72h-135zM197 104h193c104 0 149 57 149 131c0 66 -46 133 -148 133h-194v-264z" />
    <glyph glyph-name="C" unicode="C" horiz-adv-x="747" 
d="M419 106c80 0 151 39 195 99l95 -78c-68 -82 -173 -134 -290 -134c-205 0 -372 161 -372 359s167 360 372 360c117 0 222 -53 290 -135l-95 -78c-44 60 -115 100 -195 100c-134 0 -245 -102 -245 -247c0 -143 111 -246 245 -246z" />
    <glyph glyph-name="D" unicode="D" horiz-adv-x="747" 
d="M700 352c0 -187 -147 -352 -332 -352h-291v705h268c196 0 355 -158 355 -353zM197 110h160c121 0 221 113 221 242c0 134 -105 243 -233 243h-148v-485z" />
    <glyph glyph-name="E" unicode="E" horiz-adv-x="652" 
d="M197 104h410v-104h-530v705h509v-104h-389v-209h327v-100h-327v-188z" />
    <glyph glyph-name="F" unicode="F" horiz-adv-x="635" 
d="M597 601h-400v-276h345v-103h-345v-222h-120v705h520v-104z" />
    <glyph glyph-name="G" unicode="G" horiz-adv-x="784" 
d="M406 347h322v-251c-79 -63 -187 -103 -307 -103c-206 0 -374 161 -374 359s168 359 374 359c117 0 214 -39 281 -101l-77 -84c-50 46 -121 73 -204 73c-137 0 -248 -111 -248 -247c0 -141 111 -253 248 -253c71 0 134 22 183 57v90h-198v101z" />
    <glyph glyph-name="H" unicode="H" horiz-adv-x="745" 
d="M548 705h120v-705h-120v251h-351v-251h-120v705h120v-350h351v350z" />
    <glyph glyph-name="I" unicode="I" horiz-adv-x="282" 
d="M203 705v-705h-124v705h124z" />
    <glyph glyph-name="J" unicode="J" horiz-adv-x="584" 
d="M393 705h123v-417c0 -174 -80 -295 -252 -295c-127 0 -232 95 -246 219l106 10c14 -68 65 -117 137 -117c84 0 132 65 132 150v450z" />
    <glyph glyph-name="K" unicode="K" horiz-adv-x="709" 
d="M372 358l318 -358h-162l-236 267l-95 -104v-163h-120v705h120v-371l335 371h149z" />
    <glyph glyph-name="L" unicode="L" horiz-adv-x="605" 
d="M200 101h373v-101h-496v705h123v-604z" />
    <glyph glyph-name="M" unicode="M" horiz-adv-x="871" 
d="M732 705h61v-705h-123v436l-235 -350l-235 350v-436h-123v705h61l297 -429z" />
    <glyph glyph-name="N" unicode="N" horiz-adv-x="777" 
d="M577 705h123v-705h-61l-439 483v-483h-123v705h61l439 -483v483z" />
    <glyph glyph-name="O" unicode="O" horiz-adv-x="843" 
d="M421 711c207 0 374 -161 374 -359s-167 -359 -374 -359s-374 161 -374 359s167 359 374 359zM421 105c137 0 248 110 248 247c0 136 -111 247 -248 247s-248 -111 -248 -247c0 -137 111 -247 248 -247z" />
    <glyph glyph-name="P" unicode="P" horiz-adv-x="665" 
d="M77 705h286c201 0 270 -119 270 -248c0 -187 -122 -262 -297 -262h-136v-195h-123v705zM200 295h124c119 0 181 58 181 154c0 79 -41 152 -161 152h-144v-306z" />
    <glyph glyph-name="R" unicode="R" horiz-adv-x="696" 
d="M524 0l-144 196c-11 -1 -23 -1 -34 -1h-146v-195h-123v705h304c201 0 270 -119 270 -248c0 -122 -53 -201 -149 -237l170 -220h-148zM200 601v-307h141c119 0 181 59 181 155c0 79 -41 152 -160 152h-162z" />
    <glyph glyph-name="S" unicode="S" horiz-adv-x="644" 
d="M347 407c148 -33 253 -79 253 -206c0 -132 -107 -210 -268 -210c-119 0 -177 11 -289 67l45 93c96 -46 157 -56 248 -56c86 0 140 35 140 96c0 58 -57 83 -162 108c-145 34 -262 72 -262 208c0 120 97 205 256 205c102 0 198 -26 265 -57l-50 -95c-61 27 -151 48 -218 48
c-82 0 -129 -39 -129 -92c0 -59 61 -83 171 -109z" />
    <glyph glyph-name="T" unicode="T" horiz-adv-x="660" 
d="M624 705v-104h-231v-601h-123v601h-231v104h585z" />
    <glyph glyph-name="U" unicode="U" horiz-adv-x="756" 
d="M685 705v-422c0 -161 -106 -290 -307 -290c-200 0 -306 128 -306 290v422h120v-392c0 -136 64 -210 186 -210s187 75 187 210v392h120z" />
    <glyph glyph-name="V" unicode="V" horiz-adv-x="760" 
d="M381 204l224 501h134l-328 -705h-59l-328 705h134z" />
    <glyph glyph-name="W" unicode="W" horiz-adv-x="1117" 
d="M1089 705l-276 -705h-51l-206 503l-206 -503h-52l-276 705h133l174 -475l201 475h52l200 -475l174 475h133z" />
    <glyph glyph-name="X" unicode="X" horiz-adv-x="716" 
d="M360 446l191 259h137l-248 -350l254 -355h-140l-194 264l-193 -264h-140l254 355l-249 350h138z" />
    <glyph glyph-name="Y" unicode="Y" horiz-adv-x="689" 
d="M538 705h141l-273 -465v-240h-123v240l-272 465h140l194 -336z" />
    <glyph glyph-name="Z" unicode="Z" horiz-adv-x="676" 
d="M630 705v-54l-408 -547h411v-104h-588v52l408 549h-389v104h566z" />
    <glyph glyph-name="bracketleft" unicode="[" horiz-adv-x="380" 
d="M346 613h-167v-652h167v-88h-267v828h267v-88z" />
    <glyph glyph-name="backslash" unicode="\" horiz-adv-x="480" 
d="M419 -128l-443 926h100l443 -926h-100z" />
    <glyph glyph-name="bracketright" unicode="]" horiz-adv-x="387" 
d="M41 -39h167v652h-167v88h266v-828h-266v88z" />
    <glyph glyph-name="asciicircum" unicode="^" horiz-adv-x="469" 
d="M126 490h-87l168 215h55l169 -215h-87l-109 142z" />
    <glyph glyph-name="underscore" unicode="_" horiz-adv-x="590" 
d="M592 -30v-71h-595v71h595z" />
    <glyph glyph-name="grave" unicode="`" horiz-adv-x="472" 
d="M292 752l-181 161l130 11l127 -172h-76z" />
    <glyph glyph-name="a" unicode="a" 
d="M483 542h120v-542h-120v45c-46 -32 -104 -52 -168 -52c-168 0 -272 134 -272 280s104 280 272 280c61 0 122 -20 168 -51v40zM483 151v242c-37 34 -89 54 -148 54c-106 0 -177 -81 -177 -174s72 -175 177 -175c60 0 112 20 148 53z" />
    <glyph glyph-name="b" unicode="b" horiz-adv-x="672" 
d="M355 552c153 0 276 -113 276 -280c0 -164 -123 -280 -276 -280c-61 0 -122 18 -168 49v-41h-120v754h120v-249c47 29 104 47 168 47zM335 98c102 0 178 72 178 174c0 99 -76 175 -178 175c-60 0 -112 -20 -148 -53v-243c37 -33 89 -53 148 -53z" />
    <glyph glyph-name="c" unicode="c" horiz-adv-x="578" 
d="M466 168l76 -70c-49 -65 -124 -105 -207 -105c-163 0 -296 125 -296 279c0 155 133 280 296 280c86 0 160 -40 209 -104l-78 -70c-29 42 -77 69 -131 69c-99 0 -179 -78 -179 -175c0 -96 80 -174 179 -174c53 0 101 27 131 70z" />
    <glyph glyph-name="d" unicode="d" horiz-adv-x="672" 
d="M486 754h119v-754h-119v41c-46 -31 -107 -49 -169 -49c-152 0 -276 116 -276 280c0 167 124 280 276 280c63 0 122 -18 169 -47v249zM337 98c59 0 112 20 149 53v243c-37 33 -89 53 -149 53c-101 0 -178 -76 -178 -175c0 -102 77 -174 178 -174z" />
    <glyph glyph-name="e" unicode="e" horiz-adv-x="620" 
d="M579 237h-420c17 -86 94 -143 175 -143c60 0 116 27 149 72l77 -63c-50 -67 -138 -110 -243 -110c-164 0 -277 125 -277 279c0 155 113 280 277 280c162 0 263 -118 263 -283c0 -14 -1 -32 -1 -32zM317 458c-82 0 -142 -60 -156 -137h304c-7 75 -50 137 -148 137z" />
    <glyph glyph-name="f" unicode="f" horiz-adv-x="389" 
d="M384 743v-88c-17 3 -36 6 -63 6c-85 0 -98 -42 -98 -109v-10h155v-96h-155v-467c0 -94 -57 -167 -167 -167c-28 0 -52 3 -69 7v93c88 0 116 16 116 123v411h-81v96h81v31c0 143 78 187 169 187c62 0 101 -14 112 -17z" />
    <glyph glyph-name="g" unicode="g" horiz-adv-x="672" 
d="M485 542h119v-448c0 -138 -79 -282 -278 -282c-131 0 -157 12 -239 35l23 87c63 -17 109 -32 189 -32c113 0 181 69 181 154c-46 -28 -102 -44 -163 -44c-153 0 -277 111 -277 270c0 160 124 270 277 270c61 0 122 -18 168 -48v38zM158 282c0 -97 77 -166 179 -166
c59 0 112 18 148 51v228c-37 33 -89 52 -148 52c-102 0 -179 -72 -179 -165z" />
    <glyph glyph-name="h" unicode="h" horiz-adv-x="636" 
d="M344 552c154 0 233 -76 233 -248v-304h-120v304c0 95 -50 143 -133 143c-57 0 -102 -18 -137 -48v-399h-120v754h120v-248c42 30 97 46 157 46z" />
    <glyph glyph-name="i" unicode="i" horiz-adv-x="261" 
d="M70 0v542h120v-542h-120zM130 614c-39 0 -70 31 -70 69c0 39 31 70 70 70c38 0 69 -31 69 -70c0 -38 -31 -69 -69 -69z" />
    <glyph glyph-name="j" unicode="j" horiz-adv-x="261" 
d="M70 35v507h119v-562c0 -111 -72 -168 -161 -168c-31 0 -56 3 -74 7v94c6 0 14 -1 22 -1c71 0 94 33 94 123zM129 614c-39 0 -70 31 -70 69c0 39 31 70 70 70c38 0 69 -31 69 -70c0 -38 -31 -69 -69 -69z" />
    <glyph glyph-name="k" unicode="k" horiz-adv-x="607" 
d="M393 332l204 -332h-133l-151 241l-126 -123v-118h-120v754h120v-478l266 266h141z" />
    <glyph glyph-name="l" unicode="l" horiz-adv-x="260" 
d="M70 0v754h119v-754h-119z" />
    <glyph glyph-name="m" unicode="m" horiz-adv-x="986" 
d="M553 399c5 -24 9 -56 9 -96v-303h-119v304c0 95 -45 143 -123 143c-55 0 -99 -18 -133 -50v-397h-119v542h119v-41c42 33 95 51 154 51c81 0 141 -23 178 -74c46 47 108 74 176 74c154 0 233 -76 233 -248v-304h-120v304c0 95 -50 143 -133 143c-50 0 -90 -18 -122 -48z
" />
    <glyph glyph-name="n" unicode="n" horiz-adv-x="637" 
d="M344 552c154 0 233 -76 233 -248v-304h-120v304c0 95 -50 143 -133 143c-57 0 -102 -18 -137 -50v-397h-120v542h120v-41c42 33 97 51 157 51z" />
    <glyph glyph-name="o" unicode="o" 
d="M334 552c163 0 296 -125 296 -280c0 -154 -133 -279 -296 -279s-296 125 -296 279c0 155 133 280 296 280zM334 98c99 0 179 78 179 174c0 97 -80 175 -179 175s-179 -78 -179 -175c0 -96 80 -174 179 -174z" />
    <glyph glyph-name="p" unicode="p" horiz-adv-x="673" 
d="M355 552c152 0 276 -113 276 -280c0 -164 -124 -279 -276 -279c-64 0 -122 18 -168 47v-215h-120v717h120v-39c45 31 107 49 168 49zM335 98c101 0 178 72 178 174c0 99 -77 175 -178 175c-59 0 -111 -20 -148 -54v-242c36 -33 88 -53 148 -53z" />
    <glyph glyph-name="q" unicode="q" horiz-adv-x="673" 
d="M486 542h120v-717h-120v215c-47 -29 -105 -47 -169 -47c-152 0 -275 115 -275 279c0 167 123 280 275 280c62 0 123 -18 169 -49v39zM160 272c0 -102 76 -174 178 -174c60 0 111 20 148 53v242c-37 34 -89 54 -148 54c-102 0 -178 -76 -178 -175z" />
    <glyph glyph-name="r" unicode="r" horiz-adv-x="436" 
d="M187 542v-88c35 58 95 98 174 98c14 0 30 -3 46 -10l-5 -123c-25 8 -48 9 -69 9c-101 0 -144 -77 -146 -162v-266h-119v542h119z" />
    <glyph glyph-name="s" unicode="s" horiz-adv-x="524" 
d="M37 44l44 87c66 -28 121 -45 191 -45c76 0 105 33 105 67c0 40 -39 56 -128 75c-117 25 -203 64 -203 164c0 94 83 160 205 160c82 0 150 -19 210 -43l-40 -86c-53 21 -116 35 -172 35c-60 0 -96 -24 -96 -61s40 -54 132 -73c125 -25 201 -67 201 -164
c0 -98 -75 -167 -217 -167c-92 0 -156 15 -232 51z" />
    <glyph glyph-name="t" unicode="t" horiz-adv-x="412" 
d="M386 446h-163v-224c0 -98 22 -129 92 -129c28 0 50 3 69 6v-88c-9 -3 -48 -18 -120 -18c-89 0 -161 56 -161 168v285h-82v96h82v212h120v-212h163v-96z" />
    <glyph glyph-name="u" unicode="u" horiz-adv-x="641" 
d="M454 542h120v-542h-120v44c-43 -33 -100 -51 -161 -51c-154 0 -233 76 -233 248v301h119v-301c0 -95 51 -143 134 -143c58 0 105 18 141 50v394z" />
    <glyph glyph-name="v" unicode="v" horiz-adv-x="617" 
d="M473 542h126l-261 -542h-58l-262 542h126l165 -347z" />
    <glyph glyph-name="w" unicode="w" horiz-adv-x="856" 
d="M722 542h119l-205 -542h-60l-148 368l-148 -368h-59l-206 542h119l130 -350l134 350h60l134 -350z" />
    <glyph glyph-name="x" unicode="x" horiz-adv-x="585" 
d="M294 178l-144 -178h-130l206 276l-204 266h135l137 -178l136 178h135l-204 -266l206 -276h-130z" />
    <glyph glyph-name="y" unicode="y" horiz-adv-x="618" 
d="M472 542h122l-225 -571c-46 -117 -170 -158 -281 -158c-18 0 -35 0 -50 1l15 88h14c83 0 157 25 189 98h-15l-220 542h126l160 -398h13z" />
    <glyph glyph-name="z" unicode="z" horiz-adv-x="575" 
d="M546 486l-334 -390h328v-96h-506v58l332 388h-313v96h493v-56z" />
    <glyph glyph-name="braceleft" unicode="{" horiz-adv-x="440" 
d="M406 708v-77c-97 0 -127 -26 -127 -116v-82c0 -91 -19 -137 -82 -154c63 -16 82 -59 82 -150v-90c0 -90 30 -116 127 -116v-77c-124 0 -220 13 -220 149v61c0 146 -2 179 -153 179v88c151 0 153 38 153 184v52c0 137 96 149 220 149z" />
    <glyph glyph-name="bar" unicode="|" horiz-adv-x="309" 
d="M105 -128v926h93v-926h-93z" />
    <glyph glyph-name="braceright" unicode="}" horiz-adv-x="439" 
d="M36 631v77c124 0 220 -12 220 -149v-52c0 -146 2 -184 153 -184v-88c-151 0 -153 -33 -153 -179v-61c0 -136 -96 -149 -220 -149v77c97 0 127 26 127 115v91c0 91 18 134 83 150c-65 17 -83 63 -83 154v83c0 90 -30 115 -127 115z" />
    <glyph glyph-name="asciitilde" unicode="~" horiz-adv-x="485" 
d="M99 229l-56 6c4 92 51 144 116 144c60 0 118 -43 160 -43c29 0 54 25 65 66l57 -7c-5 -91 -54 -143 -112 -143c-59 0 -120 43 -160 43c-35 0 -58 -26 -70 -66z" />
    <glyph glyph-name="quotesinglbase" unicode="&#x201a;" horiz-adv-x="239" 
d="M113 130c42 0 67 -31 67 -84c0 -68 -30 -155 -147 -155l-17 48c54 1 83 20 87 61c-31 5 -55 32 -55 65c0 36 30 65 65 65z" />
    <glyph glyph-name="florin" unicode="&#x192;" horiz-adv-x="553" 
d="M529 730v-88c-17 5 -35 11 -63 11c-68 0 -96 -31 -112 -112l-9 -45h129v-96h-148l-35 -191c-21 -112 -106 -170 -194 -170c-33 0 -43 7 -57 11v93c7 -2 15 -3 23 -3c72 0 103 43 120 134l24 126h-88v96h107l17 88c22 112 105 169 194 169c69 0 89 -19 92 -23z" />
    <glyph glyph-name="quotedblbase" unicode="&#x201e;" horiz-adv-x="430" 
d="M115 130c42 0 67 -31 67 -84c0 -68 -30 -155 -148 -155l-16 48c54 1 83 20 86 61c-30 5 -54 32 -54 65c0 36 30 65 65 65zM322 130c42 0 67 -31 67 -84c0 -68 -30 -155 -147 -155l-17 48c55 1 84 20 87 61c-31 5 -54 32 -54 65c0 36 29 65 64 65z" />
    <glyph glyph-name="ellipsis" unicode="&#x2026;" horiz-adv-x="685" 
d="M108 132c38 0 69 -31 69 -70c0 -38 -31 -69 -69 -69c-39 0 -70 31 -70 69c0 39 31 70 70 70zM340 132c38 0 69 -31 69 -70c0 -38 -31 -69 -69 -69c-39 0 -70 31 -70 69c0 39 31 70 70 70zM574 132c39 0 70 -31 70 -70c0 -38 -31 -69 -70 -69c-38 0 -70 31 -70 69
c0 39 32 70 70 70z" />
    <glyph glyph-name="dagger" unicode="&#x2020;" horiz-adv-x="410" 
d="M365 591v-64l-110 5h-22v-122l5 -149h-63l5 149l-1 122h-24l-109 -5v64l109 -5h23l-3 110h63l-4 -110h21z" />
    <glyph glyph-name="daggerdbl" unicode="&#x2021;" horiz-adv-x="430" 
d="M242 250l1 -86h21l111 5v-64l-111 5h-21l4 -110h-62l4 110h-24l-109 -6v65l109 -5h24l1 86l-3 102l3 97l-1 86h-24l-109 -5v64l109 -5h23l-3 110h62l-4 -110h21l111 5v-64l-111 5h-21v-86l3 -97z" />
    <glyph glyph-name="circumflex" unicode="&#x2c6;" horiz-adv-x="500" 
d="M66 752l145 151h74l146 -151h-86l-97 91l-97 -91h-85z" />
    <glyph glyph-name="perthousand" unicode="&#x2030;" horiz-adv-x="1286" 
d="M389 516c0 -123 -80 -196 -178 -196s-178 73 -178 196c0 124 80 196 178 196s178 -72 178 -196zM113 516c0 -71 44 -118 98 -118s98 47 98 118c0 72 -44 119 -98 119s-98 -47 -98 -119zM672 384c98 0 178 -71 178 -196c0 -123 -80 -195 -178 -195s-178 72 -178 195
c0 125 80 196 178 196zM672 70c55 0 98 48 98 118c0 72 -43 119 -98 119c-54 0 -98 -47 -98 -119c0 -70 44 -118 98 -118zM1067 384c99 0 178 -71 178 -196c0 -123 -79 -195 -178 -195c-98 0 -178 72 -178 195c0 125 80 196 178 196zM1067 70c54 0 98 48 98 118
c0 72 -44 119 -98 119s-98 -47 -98 -119c0 -70 44 -118 98 -118zM638 701h89l-483 -701h-89z" />
    <glyph glyph-name="guilsinglleft" unicode="&#x2039;" horiz-adv-x="327" 
d="M206 8l-175 258l175 258l77 -56l-144 -202l144 -201z" />
    <glyph glyph-name="OE" unicode="&#x152;" horiz-adv-x="1046" 
d="M47 352c0 195 170 353 381 353h552v-104h-389v-209h327v-100h-327v-188h410v-104h-586c-205 0 -368 161 -368 352zM435 104h36v497h-36c-140 0 -266 -81 -266 -249c0 -170 135 -248 266 -248z" />
    <glyph glyph-name="quoteleft" unicode="&#x2018;" horiz-adv-x="237" 
d="M115 466c-42 0 -67 31 -67 84c0 68 30 155 148 155l16 -48c-54 -1 -83 -20 -87 -61c31 -5 55 -31 55 -65c0 -36 -30 -65 -65 -65z" />
    <glyph glyph-name="quoteright" unicode="&#x2019;" horiz-adv-x="230" 
d="M123 706c42 0 67 -32 67 -85c0 -68 -30 -155 -147 -155l-17 48c54 1 83 20 87 61c-31 5 -55 32 -55 65c0 36 30 66 65 66z" />
    <glyph glyph-name="quotedblleft" unicode="&#x201c;" horiz-adv-x="441" 
d="M319 463c-42 0 -67 32 -67 85c0 68 30 155 147 155l17 -48c-55 -1 -83 -20 -87 -61c31 -5 54 -32 54 -65c0 -36 -29 -66 -64 -66zM111 463c-42 0 -67 32 -67 85c0 68 30 155 148 155l16 -48c-54 -1 -83 -20 -87 -61c31 -5 55 -32 55 -65c0 -36 -30 -66 -65 -66z" />
    <glyph glyph-name="quotedblright" unicode="&#x201d;" horiz-adv-x="437" 
d="M125 706c42 0 67 -32 67 -85c0 -68 -30 -155 -147 -155l-17 48c55 1 83 20 87 61c-31 5 -54 32 -54 65c0 36 29 66 64 66zM333 706c42 0 67 -32 67 -85c0 -68 -30 -155 -148 -155l-16 48c54 1 83 20 87 61c-31 5 -55 32 -55 65c0 36 30 66 65 66z" />
    <glyph glyph-name="bullet" unicode="&#x2022;" horiz-adv-x="441" 
d="M344 352c0 -69 -56 -124 -124 -124s-124 55 -124 124c0 68 56 123 124 123s124 -55 124 -123z" />
    <glyph glyph-name="endash" unicode="&#x2013;" horiz-adv-x="528" 
d="M483 382v-99h-439v99h439z" />
    <glyph glyph-name="emdash" unicode="&#x2014;" horiz-adv-x="898" 
d="M853 382v-99h-809v99h809z" />
    <glyph glyph-name="tilde" unicode="&#x2dc;" horiz-adv-x="500" 
d="M105 745l-57 6c5 92 51 144 116 144c61 0 118 -43 160 -43c30 0 55 25 66 66l56 -7c-5 -90 -54 -144 -111 -144c-60 0 -120 44 -160 44c-36 0 -58 -26 -70 -66z" />
    <glyph glyph-name="trademark" unicode="&#x2122;" horiz-adv-x="695" 
d="M287 699v-49h-105v-263h-60v263h-106v49h271zM637 699h28v-312h-59v184l-106 -145l-105 145v-184h-59v312h28l136 -186z" />
    <glyph glyph-name="guilsinglright" unicode="&#x203a;" horiz-adv-x="317" 
d="M109 524l175 -258l-175 -258l-77 57l144 201l-144 202z" />
    <glyph glyph-name="oe" unicode="&#x153;" horiz-adv-x="1090" 
d="M1050 237h-420c17 -86 94 -143 175 -143c60 0 116 27 149 72l77 -63c-50 -67 -138 -110 -243 -110c-100 0 -181 46 -229 118c-46 -72 -130 -119 -228 -119c-163 0 -293 126 -293 280s130 280 295 280c98 0 181 -47 226 -118c48 71 129 118 229 118
c162 0 263 -118 263 -283c0 -14 -1 -32 -1 -32zM332 96c102 0 177 79 177 176s-78 176 -178 176c-101 0 -178 -78 -178 -176c0 -97 80 -176 179 -176zM788 458c-82 0 -142 -60 -156 -137h304c-7 75 -50 137 -148 137z" />
    <glyph glyph-name="exclamdown" unicode="&#xa1;" horiz-adv-x="264" 
d="M90 482h82l20 -482h-123zM131 572c-39 0 -69 31 -69 70c0 38 30 69 69 69s70 -31 70 -69c0 -39 -31 -70 -70 -70z" />
    <glyph glyph-name="cent" unicode="&#xa2;" horiz-adv-x="575" 
d="M390 540l-73 -360c8 -1 16 -2 25 -2c48 0 97 31 126 70l76 -64c-50 -60 -123 -98 -204 -101c-14 0 -28 1 -41 3l-17 -86h-80l20 102c-110 41 -189 144 -189 264c0 167 140 283 299 284l14 64h78l-15 -77c54 -15 100 -45 135 -86l-76 -64c-20 25 -48 43 -78 53zM137 366
c0 -73 42 -137 105 -167l72 357c-101 -9 -177 -90 -177 -190z" />
    <glyph glyph-name="sterling" unicode="&#xa3;" horiz-adv-x="639" 
d="M604 101v-101h-561v57l105 38c-6 44 -15 114 -21 175h-79v90h73c-2 20 -2 40 -2 57c0 216 111 295 254 295c94 0 176 -51 219 -127l-80 -67c-26 48 -74 83 -136 83c-87 0 -134 -61 -134 -164c0 -23 1 -49 3 -77h261v-90h-253l21 -169h330z" />
    <glyph glyph-name="Euro" unicode="&#x20ac;" horiz-adv-x="704" 
d="M425 105c82 0 132 37 173 90l84 -70c-59 -84 -152 -132 -257 -132c-151 0 -278 101 -314 260h-76v60h67c-1 13 -2 25 -2 39c0 12 1 25 2 37h-67v59h76c36 160 163 262 314 262c105 0 198 -49 257 -132l-84 -71c-41 53 -91 91 -173 91c-84 0 -156 -63 -183 -150h221v-59
h-237c-1 -12 -2 -25 -2 -37c0 -14 1 -26 2 -39h237v-60h-221c27 -87 99 -148 183 -148z" />
    <glyph glyph-name="yen" unicode="&#xa5;" horiz-adv-x="716" 
d="M689 705l-221 -375h146v-80h-191l-6 -18v-27h197v-80h-197v-125h-124v125h-197v80h197v27l-6 18h-191v80h145l-220 375h140l193 -336l194 336h141z" />
    <glyph glyph-name="section" unicode="&#xa7;" horiz-adv-x="626" 
d="M550 331c0 -46 -34 -85 -64 -95c20 -18 32 -41 32 -79c0 -92 -76 -165 -210 -165c-89 0 -152 10 -233 51l45 81c59 -29 102 -44 177 -44c72 0 98 44 98 66c0 89 -335 51 -335 207c0 47 32 84 84 108c-34 21 -56 57 -56 103c0 97 89 148 202 148c87 0 180 -23 237 -45
l-39 -87c-53 19 -134 42 -200 42c-53 0 -95 -23 -95 -64c0 -44 62 -58 150 -79c125 -29 207 -53 207 -148zM334 396c-39 10 -80 19 -117 31c-38 -12 -65 -39 -65 -62c0 -55 127 -55 252 -94c24 4 54 24 54 56c0 28 -29 48 -124 69z" />
    <glyph glyph-name="dieresis" unicode="&#xa8;" horiz-adv-x="500" 
d="M344 872c32 0 59 -26 59 -58s-27 -59 -59 -59s-59 27 -59 59s27 58 59 58zM157 872c32 0 58 -26 58 -58s-26 -59 -58 -59c-33 0 -59 27 -59 59s26 58 59 58z" />
    <glyph glyph-name="copyright" unicode="&#xa9;" horiz-adv-x="830" 
d="M416 715c202 0 358 -165 358 -361c0 -195 -157 -361 -360 -361c-201 0 -358 165 -358 361c0 195 158 361 360 361zM735 354c0 177 -138 323 -319 323s-321 -147 -321 -324s139 -323 319 -323c182 0 321 148 321 324zM418 213c42 0 80 22 104 56l55 -47
c-37 -48 -95 -78 -159 -78c-113 0 -205 94 -205 210s92 209 205 209c64 0 122 -30 159 -78l-55 -47c-24 34 -62 56 -104 56c-72 0 -131 -63 -131 -140c0 -78 59 -141 131 -141z" />
    <glyph glyph-name="guillemotleft" unicode="&#xab;" horiz-adv-x="579" 
d="M457 8l-175 258l175 258l77 -56l-144 -202l144 -201zM216 8l-174 258l174 258l78 -56l-145 -202l145 -201z" />
    <glyph glyph-name="registered" unicode="&#xae;" horiz-adv-x="830" 
d="M417 715c201 0 358 -165 358 -361c0 -195 -158 -361 -360 -361c-201 0 -358 165 -358 361c0 195 158 361 360 361zM736 354c0 177 -138 323 -319 323c-182 0 -321 -147 -321 -324s138 -323 319 -323c182 0 321 148 321 324zM600 193l-52 -51l-110 125
c-7 -1 -14 -1 -21 -1h-84v-112h-75v407h174c117 0 157 -69 157 -143c0 -65 -26 -106 -72 -129zM333 499v-177h77c66 0 101 33 101 89c0 45 -23 88 -89 88h-89z" />
    <glyph glyph-name="macron" unicode="&#xaf;" horiz-adv-x="500" 
d="M92 772v77h316v-77h-316z" />
    <glyph glyph-name="degree" unicode="&#xb0;" horiz-adv-x="472" 
d="M236 364c-99 0 -182 80 -182 178c0 97 86 178 182 178s182 -81 182 -180c0 -96 -83 -176 -182 -176zM236 427c64 0 115 51 115 114c0 64 -53 115 -115 115c-63 0 -116 -52 -116 -115s52 -114 116 -114z" />
    <glyph glyph-name="acute" unicode="&#xb4;" horiz-adv-x="500" 
d="M402 913l-181 -161h-76l127 172z" />
    <glyph glyph-name="paragraph" unicode="&#xb6;" horiz-adv-x="576" 
d="M290 700h219v-700h-80v593h-35v-593h-80v245h-21c-155 0 -267 79 -267 227c0 147 104 228 264 228zM315 368v225h-18c-75 0 -126 -38 -126 -112c0 -76 52 -113 121 -113h23z" />
    <glyph glyph-name="periodcentered" unicode="&#xb7;" horiz-adv-x="231" 
d="M184 313c0 -39 -31 -70 -70 -70s-70 31 -70 70s31 70 70 70s70 -31 70 -70z" />
    <glyph glyph-name="cedilla" unicode="&#xb8;" horiz-adv-x="429" 
d="M152 -77l63 78h72l-25 -56c13 0 38 -19 38 -50c0 -38 -32 -82 -124 -82c-24 0 -61 3 -61 3l-3 43s28 -3 42 -3c42 0 67 16 67 37c0 22 -32 30 -69 30z" />
    <glyph glyph-name="guillemotright" unicode="&#xbb;" horiz-adv-x="578" 
d="M540 266l-175 -258l-77 57l145 201l-145 202l77 56zM300 266l-175 -258l-77 57l145 201l-145 202l77 56z" />
    <glyph glyph-name="questiondown" unicode="&#xbf;" horiz-adv-x="540" 
d="M292 -8c-155 0 -257 84 -257 227c0 106 81 189 228 189l5 92h85l7 -139l-12 -28h-41c-100 0 -164 -43 -164 -115c0 -78 64 -123 145 -123c77 0 135 10 198 41l41 -93c-80 -42 -138 -51 -235 -51zM311 572c-39 0 -70 31 -70 70s31 70 70 70s70 -31 70 -70s-31 -70 -70 -70
z" />
    <glyph glyph-name="AE" unicode="&#xc6;" horiz-adv-x="1026" 
d="M571 104h411v-104h-530v156h-239l-77 -156h-130l361 705h594v-104h-390v-209h328v-100h-328v-188zM426 592l-167 -336h193v336h-26z" />
    <glyph glyph-name="Eth" unicode="&#xd0;" horiz-adv-x="793" 
d="M32 303v99h92v303h267c196 0 355 -158 355 -353c0 -187 -147 -352 -332 -352h-290v303h-92zM243 110h160c122 0 221 113 221 242c0 134 -104 243 -233 243h-148v-193h162v-99h-162v-193z" />
    <glyph glyph-name="Oslash" unicode="&#xd8;" horiz-adv-x="843" 
d="M69 0l86 100c-67 64 -108 154 -108 252c0 198 167 359 374 359c77 0 149 -23 208 -62l48 56h103l-90 -105c64 -64 105 -152 105 -248c0 -198 -167 -359 -374 -359c-76 0 -146 21 -204 59l-45 -52h-103zM173 352c0 -62 24 -117 62 -158l317 366c-38 24 -83 39 -131 39
c-137 0 -248 -111 -248 -247zM421 105c137 0 248 110 248 247c0 59 -23 113 -60 154l-315 -365c36 -23 80 -36 127 -36z" />
    <glyph glyph-name="Thorn" unicode="&#xde;" horiz-adv-x="664" 
d="M77 0v704h123v-97h163c178 0 270 -99 270 -246c0 -175 -120 -255 -286 -255h-147v-106h-123zM200 206h144c99 0 166 50 166 154c0 86 -47 147 -156 147h-154v-301z" />
    <glyph glyph-name="germandbls" unicode="&#xdf;" horiz-adv-x="658" 
d="M474 419c93 -29 143 -107 143 -185c0 -160 -116 -241 -257 -241c-26 0 -51 2 -74 9l4 99c16 -4 35 -7 55 -7c83 0 154 44 154 140c0 65 -50 129 -148 129h-21v90h11c58 0 97 48 97 105c0 66 -54 107 -127 107c-78 0 -124 -63 -124 -141v-696h-120v674
c0 162 110 259 244 259c138 0 239 -74 239 -209c0 -61 -31 -108 -76 -133z" />
    <glyph glyph-name="ae" unicode="&#xe6;" horiz-adv-x="1108" 
d="M1068 237h-420c17 -86 94 -143 175 -143c60 0 116 27 149 72l77 -63c-50 -67 -138 -110 -243 -110c-82 0 -151 31 -199 81v-74h-120v45c-47 -32 -104 -52 -169 -52c-152 0 -275 115 -275 279c0 167 123 280 275 280c62 0 123 -19 169 -50v40h120v-71c48 50 117 81 199 81
c162 0 263 -118 263 -283c0 -14 -1 -32 -1 -32zM487 151v242c-37 34 -90 56 -148 56c-102 0 -181 -78 -181 -177c0 -102 79 -176 181 -176c59 0 111 22 148 55zM806 458c-82 0 -142 -60 -156 -137h304c-7 75 -50 137 -148 137z" />
    <glyph glyph-name="eth" unicode="&#xf0;" horiz-adv-x="654" 
d="M181 754h131l69 -74l127 44l41 -60l-121 -42c104 -119 190 -243 190 -376c0 -140 -136 -253 -296 -253c-163 0 -296 119 -296 263c0 122 102 240 268 240c44 0 99 -9 128 -31l-21 30c-22 31 -49 61 -77 90l-156 -54l-44 60l154 54zM322 93c99 0 179 73 179 166
c0 94 -88 144 -179 144c-99 0 -179 -57 -179 -147s80 -163 179 -163z" />
    <glyph glyph-name="oslash" unicode="&#xf8;" 
d="M47 0l72 81c-50 49 -81 116 -81 191c0 155 133 280 296 280c60 0 117 -17 164 -47l36 41h89l-74 -83c50 -50 81 -117 81 -191c0 -154 -133 -279 -296 -279c-60 0 -116 17 -162 46l-36 -39h-89zM334 98c99 0 179 78 179 174c0 40 -17 76 -43 103l-224 -253
c25 -16 55 -24 88 -24zM155 272c0 -40 16 -77 42 -104l226 254c-25 16 -56 25 -89 25c-99 0 -179 -78 -179 -175z" />
    <glyph glyph-name="thorn" unicode="&#xfe;" horiz-adv-x="673" 
d="M355 552c152 0 276 -113 276 -280c0 -164 -124 -279 -276 -279c-64 0 -122 18 -168 47v-215h-120v929h120v-251c45 31 107 49 168 49zM335 98c101 0 178 72 178 174c0 99 -77 175 -178 175c-59 0 -111 -20 -148 -54v-242c36 -33 88 -53 148 -53z" />
    <glyph glyph-name="intelligentdesign" horiz-adv-x="967" 
d="M652 619c67 -27 114 -93 114 -169c0 -77 -47 -143 -114 -170c-27 -67 -93 -114 -170 -114s-142 47 -170 114c-67 27 -114 93 -114 170c0 76 47 142 114 169c28 67 93 114 170 114s142 -47 170 -114zM504 471h112c0 65 -49 120 -112 131v-131zM504 428v-131
c63 12 112 66 112 131h-112zM461 294v134h-69v-134h69zM461 471v134h-69v-134h69zM286 111c26 0 47 -20 47 -45s-21 -46 -47 -46s-47 21 -47 46s21 45 47 45zM678 48c4 -4 9 -7 15 -10l-9 -21c-13 5 -23 13 -32 24h-15v-19h-24v88h41c27 0 36 -16 36 -34
c0 -12 -4 -22 -12 -28zM604 66c0 -24 -18 -44 -41 -44h-33v88h30c25 0 44 -20 44 -44zM492 64v46h24v-88h-11l-47 45v-45h-24v88h11zM398 109h24v-52c0 -22 -19 -37 -41 -37c-21 0 -41 15 -41 37v52h24v-46c0 -16 6 -21 17 -21s17 5 17 21v46zM732 77l18 32h27l-33 -58v-29
h-24v29l-33 58h27zM234 110v-20h-18v-32h17v-17h-17v-19h-24v19h-5v17h5v52h42zM286 42c12 0 22 11 22 24s-10 23 -22 23c-13 0 -23 -10 -23 -23s10 -24 23 -24zM650 -134c0 -12 -11 -21 -21 -21h-12v42h12c12 0 21 -10 21 -21zM554 43h7c11 0 19 10 19 23
c0 12 -9 22 -20 22h-6v-45zM907 -144l10 -11h-6l-8 9h-10v-9h-4v42h11c9 0 16 -8 16 -16c0 -6 -3 -12 -9 -15zM650 90h-13v-32h11c12 1 17 6 17 16c0 8 -4 16 -15 16zM629 -151c9 0 17 8 17 17c0 10 -8 17 -17 17h-8v-34h8zM145 -149l12 37h4l-14 -42h-4l-9 35l-8 -35h-4
l-14 42h4l12 -37l8 37h4zM207 -149l12 37h4l-14 -42h-4l-9 35l-8 -35h-4l-14 42h4l12 -37l8 37h4zM85 -149l12 37h4l-14 -42h-4l-9 35l-8 -35h-4l-14 42h4l12 -37l8 37h4zM566 -148v35h4v-42h-4l-25 36v-36h-4v42h4zM819 -148v35h4v-42h-4l-25 36v-36h-4v42h4zM288 -148v35
h4v-42h-4l-25 36v-36h-4v42h4zM479 -142v4h14v-11s-6 -6 -16 -6c-13 0 -22 9 -22 21s10 22 21 22c7 0 12 -3 16 -7l-3 -3c-3 4 -8 6 -13 6c-9 0 -17 -8 -17 -18c0 -9 8 -17 18 -17c7 0 12 4 12 4v5h-10zM766 -142v4h14v-11s-6 -6 -16 -6c-13 0 -22 9 -22 21s10 22 21 22
c7 0 12 -3 16 -7l-3 -3c-3 4 -8 6 -13 6c-9 0 -17 -8 -17 -18c0 -9 8 -17 18 -17c7 0 12 4 12 4v5h-10zM866 -142v4h14v-11s-6 -6 -16 -6c-13 0 -22 9 -22 21s10 22 21 22c7 0 12 -3 16 -7l-3 -3c-3 4 -8 6 -13 6c-9 0 -17 -8 -17 -18c0 -9 8 -17 18 -17c7 0 12 4 12 4v5
h-10zM341 -113h26v-4h-22v-18h20v-4h-20v-12h22v-4h-26v42zM659 -113h26v-4h-22v-18h20v-4h-20v-12h22v-4h-26v42zM502 -113h26v-4h-22v-18h20v-4h-20v-12h22v-4h-26v42zM893 -142h7c7 1 12 7 12 13c0 7 -6 12 -12 12h-7v-25zM708 -131c8 -3 11 -7 11 -12
c0 -7 -5 -12 -12 -12s-13 4 -15 9l3 2c2 -4 6 -7 12 -7c4 0 8 3 8 8c0 3 -2 6 -8 8c-10 4 -12 7 -12 12c0 6 5 11 11 11c5 0 9 -3 11 -7l-3 -2c-2 3 -4 5 -8 5c-3 0 -7 -3 -7 -7s3 -6 9 -8zM314 -117h-13v4h30v-4h-13v-38h-4v38zM591 -117h-13v4h30v-4h-13v-38h-4v38z
M409 -113h4v-38h20v-4h-24v42zM376 -113h4v-38h20v-4h-24v42zM244 -113h4v-42h-4v42zM442 -113h4v-42h-4v42zM729 -113h4v-42h-4v42zM225 -152c0 2 2 4 4 4s4 -2 4 -4s-2 -4 -4 -4s-4 2 -4 4zM830 -152c0 2 2 4 4 4s4 -2 4 -4s-2 -4 -4 -4s-4 2 -4 4z" />
    <glyph glyph-name="uni00AD" unicode="&#xad;" horiz-adv-x="408" 
d="M364 382v-99h-320v99h320z" />
    <glyph glyph-name="onesuperior" unicode="&#xb9;" horiz-adv-x="377" 
d="M223 705h33v-406h-74v334l-82 -18l-15 59z" />
    <glyph glyph-name="threesuperior" unicode="&#xb3;" horiz-adv-x="415" 
d="M344 671l-108 -134c67 -12 116 -48 116 -113c0 -82 -65 -131 -163 -131c-64 0 -102 6 -155 30l27 57c45 -19 82 -24 130 -24s89 24 89 69c0 31 -29 65 -99 65h-28l-14 30l96 121h-181v63h290v-33z" />
    <glyph glyph-name="twosuperior" unicode="&#xb2;" horiz-adv-x="415" 
d="M182 363h180v-64h-317v32c71 109 245 136 245 225c0 51 -41 92 -91 92c-51 0 -88 -45 -88 -92v-5h-66v9c0 90 72 155 155 155c85 0 159 -67 159 -155c0 -126 -129 -143 -177 -197z" />
    <glyph glyph-name="KB" unicode="&#xa4;" horiz-adv-x="973" 
d="M651 619c67 -27 114 -93 114 -169c0 -77 -47 -143 -114 -170c-27 -67 -93 -114 -169 -114c-77 0 -143 47 -170 114c-67 27 -114 93 -114 170c0 76 47 142 114 169c27 67 93 114 170 114c76 0 142 -47 169 -114zM503 294h35c42 0 77 35 77 78c0 22 -9 42 -24 56h-88v-134z
M503 471h88c15 14 24 34 24 56c0 43 -35 78 -77 78h-35v-134zM391 363l69 -69v134h-112v-134h43v69zM348 471h112v134l-69 -69v69h-43v-134zM777 75c10 -4 17 -14 17 -26c0 -14 -9 -27 -27 -27h-47v88h39c19 0 26 -9 26 -19c0 -7 -3 -12 -8 -16zM159 66
c0 -24 -18 -44 -41 -44h-33v88h30c25 0 44 -20 44 -44zM690 66c0 -24 -18 -44 -41 -44h-33v88h30c25 0 44 -20 44 -44zM504 64v46h24v-88h-11l-47 45v-45h-24v88h11zM396 66h41v-33c-10 -8 -25 -12 -39 -13c-26 0 -47 21 -47 46s21 45 47 45c15 0 27 -5 36 -13l-16 -16
c-5 4 -12 7 -20 7c-12 0 -22 -10 -22 -23c0 -14 10 -25 22 -25c5 0 10 2 14 4v4h-16v17zM238 29l9 18c11 -5 20 -7 30 -7c7 0 10 3 10 6c0 4 -3 6 -14 9c-19 4 -33 9 -33 28c0 16 12 28 33 28c15 0 27 -4 36 -7l-10 -19c-8 3 -18 6 -26 6c-6 0 -9 -3 -9 -6c0 -4 3 -6 15 -9
c20 -4 33 -11 33 -27c0 -18 -14 -29 -36 -29c-15 0 -24 2 -38 9zM563 61v-20h42v-19h-66v88h64v-20h-40v-12h27v-17h-27zM190 61v-20h42v-19h-66v88h63v-20h-39v-12h26v-17h-26zM833 77l18 32h28l-34 -58v-29h-24v29l-33 58h27zM344 22h-24v88h24v-88zM650 -134
c0 -12 -11 -21 -21 -21h-12v42h12c12 0 21 -10 21 -21zM109 43h7c11 0 19 10 19 23c0 12 -9 22 -20 22h-6v-45zM640 43h7c11 0 19 10 19 23c0 12 -9 22 -20 22h-6v-45zM907 -144l10 -11h-6l-8 9h-10v-9h-4v42h11c9 0 16 -8 16 -16c0 -6 -3 -12 -9 -15zM629 -151
c9 0 17 8 17 17c0 10 -8 17 -17 17h-8v-34h8zM207 -149l12 37h4l-14 -42h-4l-9 35l-8 -35h-4l-14 42h4l12 -37l8 37h4zM85 -149l12 37h4l-14 -42h-4l-9 35l-8 -35h-4l-14 42h4l12 -37l8 37h4zM145 -149l12 37h4l-14 -42h-4l-9 35l-8 -35h-4l-14 42h4l12 -37l8 37h4z
M566 -148v35h4v-42h-4l-25 36v-36h-4v42h4zM819 -148v35h4v-42h-4l-25 36v-36h-4v42h4zM288 -148v35h4v-42h-4l-25 36v-36h-4v42h4zM743 41h11c11 0 15 5 15 11c0 7 -6 10 -18 10h-8v-21zM866 -142v4h14v-11s-6 -6 -16 -6c-13 0 -22 9 -22 21s10 22 21 22c7 0 12 -3 16 -7
l-3 -3c-3 4 -8 6 -13 6c-9 0 -17 -8 -17 -18c0 -9 8 -17 18 -17c7 0 12 4 12 4v5h-10zM766 -142v4h14v-11s-6 -6 -16 -6c-13 0 -22 9 -22 21s10 22 21 22c7 0 12 -3 16 -7l-3 -3c-3 4 -8 6 -13 6c-9 0 -17 -8 -17 -18c0 -9 8 -17 18 -17c7 0 12 4 12 4v5h-10zM479 -142v4h14
v-11s-6 -6 -16 -6c-13 0 -22 9 -22 21s10 22 21 22c7 0 12 -3 16 -7l-3 -3c-3 4 -8 6 -13 6c-9 0 -17 -8 -17 -18c0 -9 8 -17 18 -17c7 0 12 4 12 4v5h-10zM502 -113h26v-4h-22v-18h20v-4h-20v-12h22v-4h-26v42zM659 -113h26v-4h-22v-18h20v-4h-20v-12h22v-4h-26v42z
M341 -113h26v-4h-22v-18h20v-4h-20v-12h22v-4h-26v42zM893 -142h7c7 1 12 7 12 13c0 7 -6 12 -12 12h-7v-25zM708 -131c8 -3 11 -7 11 -12c0 -7 -5 -12 -12 -12s-13 4 -15 9l3 2c2 -4 6 -7 12 -7c4 0 8 3 8 8c0 3 -2 6 -8 8c-10 4 -12 7 -12 12c0 6 5 11 11 11
c5 0 9 -3 11 -7l-3 -2c-2 3 -4 5 -8 5c-3 0 -7 -3 -7 -7s3 -6 9 -8zM591 -117h-13v4h30v-4h-13v-38h-4v38zM314 -117h-13v4h30v-4h-13v-38h-4v38zM376 -113h4v-38h20v-4h-24v42zM409 -113h4v-38h20v-4h-24v42zM758 90h-15v-11h14c5 0 7 3 7 5c0 3 -2 6 -6 6zM244 -113h4v-42
h-4v42zM729 -113h4v-42h-4v42zM442 -113h4v-42h-4v42zM830 -152c0 2 2 4 4 4s4 -2 4 -4s-2 -4 -4 -4s-4 2 -4 4zM225 -152c0 2 2 4 4 4s4 -2 4 -4s-2 -4 -4 -4s-4 2 -4 4z" />
    <glyph glyph-name="dieresistonos" unicode="&#x385;" horiz-adv-x="570" 
d="M116 714c32 0 58 -26 58 -59c0 -32 -26 -58 -58 -58c-33 0 -59 26 -59 58c0 33 26 59 59 59zM452 714c32 0 58 -26 58 -59c0 -32 -26 -58 -58 -58c-33 0 -59 26 -59 58c0 33 26 59 59 59zM232 589l56 200l92 -20l-83 -180h-65z" />
    <glyph glyph-name="tonos" unicode="&#x384;" horiz-adv-x="413" 
d="M360 706l-186 -162h-77l133 173z" />
    <glyph glyph-name="Alpha" unicode="&#x391;" horiz-adv-x="757" 
d="M614 0l-70 156h-332l-68 -156h-130l333 705h63l333 -705h-129zM378 532l-122 -276h245z" />
    <glyph glyph-name="Beta" unicode="&#x392;" horiz-adv-x="706" 
d="M530 560c0 -42 -18 -86 -52 -114c115 -14 190 -112 190 -223c0 -117 -74 -223 -213 -223h-378v705h299c85 0 154 -64 154 -145zM197 601v-143h151c52 0 72 39 72 71c0 41 -34 72 -88 72h-135zM197 104h193c104 0 149 57 149 131c0 66 -46 133 -148 133h-194v-264z" />
    <glyph glyph-name="Gamma" unicode="&#x393;" horiz-adv-x="606" 
d="M573 705v-104h-373v-601h-123v705h496z" />
    <glyph glyph-name="Epsilon" unicode="&#x395;" horiz-adv-x="652" 
d="M197 104h410v-104h-530v705h509v-104h-389v-209h327v-100h-327v-188z" />
    <glyph glyph-name="Zeta" unicode="&#x396;" horiz-adv-x="676" 
d="M630 705v-54l-408 -547h411v-104h-588v52l408 549h-389v104h566z" />
    <glyph glyph-name="Eta" unicode="&#x397;" horiz-adv-x="745" 
d="M548 705h120v-705h-120v251h-351v-251h-120v705h120v-350h351v350z" />
    <glyph glyph-name="Theta" unicode="&#x398;" horiz-adv-x="843" 
d="M421 711c206 0 374 -161 374 -359s-168 -359 -374 -359c-207 0 -374 161 -374 359s167 359 374 359zM421 105c137 0 248 110 248 247c0 136 -111 247 -248 247s-248 -111 -248 -247c0 -137 111 -247 248 -247zM248 302v100h346v-100h-346z" />
    <glyph glyph-name="Iota" unicode="&#x399;" horiz-adv-x="282" 
d="M203 705v-705h-124v705h124z" />
    <glyph glyph-name="Kappa" unicode="&#x39a;" horiz-adv-x="709" 
d="M372 358l318 -358h-162l-236 267l-95 -104v-163h-120v705h120v-371l335 371h149z" />
    <glyph glyph-name="Lambda" unicode="&#x39b;" horiz-adv-x="748" 
d="M405 705l323 -705h-128l-226 521l-225 -521h-129l324 705h61z" />
    <glyph glyph-name="Mu" unicode="&#x39c;" horiz-adv-x="871" 
d="M732 705h61v-705h-123v436l-235 -350l-235 350v-436h-123v705h61l297 -429z" />
    <glyph glyph-name="Nu" unicode="&#x39d;" horiz-adv-x="777" 
d="M577 705h123v-705h-61l-439 483v-483h-123v705h61l439 -483v483z" />
    <glyph glyph-name="Xi" unicode="&#x39e;" horiz-adv-x="693" 
d="M56 103h593v-103h-593v103zM642 705v-103h-579v103h579zM589 303h-473v100h473v-100z" />
    <glyph glyph-name="Omicron" unicode="&#x39f;" horiz-adv-x="843" 
d="M421 711c207 0 374 -161 374 -359s-167 -359 -374 -359s-374 161 -374 359s167 359 374 359zM421 105c137 0 248 110 248 247c0 136 -111 247 -248 247s-248 -111 -248 -247c0 -137 111 -247 248 -247z" />
    <glyph glyph-name="Pi" unicode="&#x3a0;" horiz-adv-x="747" 
d="M78 705h593v-705h-120v602h-354v-602h-119v705z" />
    <glyph glyph-name="Rho" unicode="&#x3a1;" horiz-adv-x="660" 
d="M77 705h286c201 0 270 -119 270 -248c0 -187 -122 -262 -297 -262h-136v-195h-123v705zM200 295h124c119 0 181 58 181 154c0 79 -41 152 -161 152h-144v-306z" />
    <glyph glyph-name="Sigma" unicode="&#x3a3;" horiz-adv-x="668" 
d="M223 104h402v-104h-583v54l232 298l-223 299v54h569v-104h-393l186 -249z" />
    <glyph glyph-name="Tau" unicode="&#x3a4;" horiz-adv-x="660" 
d="M624 705v-104h-231v-601h-123v601h-231v104h585z" />
    <glyph glyph-name="Upsilon" unicode="&#x3a5;" horiz-adv-x="689" 
d="M538 705h141l-273 -465v-240h-123v240l-272 465h140l194 -336z" />
    <glyph glyph-name="Phi" unicode="&#x3a6;" horiz-adv-x="905" 
d="M860 362v-9c-1 -170 -155 -299 -324 -299h-23v-54h-120v54h-22c-163 2 -325 120 -325 299v10c2 165 150 299 324 299h23v43h120v-43h23c170 0 321 -129 324 -300zM166 358c0 -115 89 -197 204 -197h23v394h-23c-119 0 -204 -87 -204 -197zM513 555v-394h23
c114 0 204 83 204 197c0 110 -85 197 -204 197h-23z" />
    <glyph glyph-name="Chi" unicode="&#x3a7;" horiz-adv-x="734" 
d="M369 446l199 259h137l-257 -350l263 -355h-140l-202 264l-202 -264h-140l262 355l-257 350h139z" />
    <glyph glyph-name="Psi" unicode="&#x3a8;" horiz-adv-x="869" 
d="M692 705h119v-258c0 -162 -141 -292 -297 -292h-19v-155h-120v155h-20c-156 0 -296 130 -296 292v258h119v-258c0 -103 73 -185 177 -185h20v443h120v-443h19c105 0 178 82 178 185v258z" />
    <glyph glyph-name="alpha" unicode="&#x3b1;" horiz-adv-x="674" 
d="M487 542h120v-542h-120v45c-46 -32 -104 -52 -168 -52c-152 0 -276 115 -276 280c0 166 124 280 276 280c61 0 122 -20 168 -51v40zM487 151v242c-37 34 -89 54 -148 54c-102 0 -178 -76 -178 -174c0 -103 76 -175 178 -175c60 0 112 20 148 53z" />
    <glyph glyph-name="beta" unicode="&#x3b2;" horiz-adv-x="655" 
d="M477 419c91 -26 140 -107 140 -185c0 -160 -116 -241 -257 -241c-66 0 -126 18 -173 51v-216h-120v674c0 162 110 258 243 258c139 0 240 -72 240 -208c0 -61 -29 -113 -73 -133zM311 663c-84 0 -124 -61 -124 -139v-71h155c57 0 96 41 96 105c0 69 -54 105 -127 105z
M341 94c87 0 158 43 158 140c0 65 -50 129 -148 129h-164v-208c36 -35 91 -61 154 -61z" />
    <glyph glyph-name="gamma" unicode="&#x3b3;" horiz-adv-x="615" 
d="M473 542h122l-227 -543v-171h-120v173l-230 541h123l166 -379z" />
    <glyph glyph-name="delta" unicode="&#x3b4;" horiz-adv-x="668" 
d="M552 658h-264s193 -162 223 -190c83 -79 111 -137 111 -214c0 -140 -129 -261 -289 -261c-163 0 -296 119 -296 263c0 124 117 237 251 237c49 0 69 -6 73 -8c-16 13 -263 214 -263 214v55h454v-96zM333 93c99 0 174 70 174 163c0 90 -76 152 -174 152
c-99 0 -179 -62 -179 -152s80 -163 179 -163z" />
    <glyph glyph-name="epsilon" unicode="&#x3b5;" horiz-adv-x="582" 
d="M501 142l47 -78c-85 -43 -152 -71 -257 -71c-147 0 -251 40 -251 158c0 61 38 107 104 127c-53 25 -84 71 -84 117c0 123 100 157 241 157c89 0 166 -30 236 -64l-46 -74c-61 27 -119 46 -175 46c-83 0 -141 -21 -141 -78c0 -26 23 -68 101 -68h120v-77h-143
c-70 0 -96 -42 -96 -74c0 -48 51 -77 138 -77c83 0 130 20 206 56z" />
    <glyph glyph-name="pi" unicode="&#x3c0;" horiz-adv-x="649" 
d="M67 542h515v-542h-120v442h-275v-442h-120v542z" />
    <glyph glyph-name="mu" unicode="&#xb5;" horiz-adv-x="649" 
d="M462 542h119v-542h-119v41c-39 -31 -93 -48 -151 -48c-52 0 -97 21 -124 61v-226h-120v714h120v-301c0 -96 50 -143 133 -143c59 0 105 18 142 50v394z" />
    <glyph glyph-name="Omega" unicode="&#x2126;" horiz-adv-x="834" 
d="M786 371c0 -134 -81 -229 -160 -268h150v-103h-299v112c83 23 184 114 184 259c0 155 -110 237 -244 237c-136 0 -245 -82 -245 -237c0 -145 100 -236 183 -259v-112h-298v103h149c-79 39 -159 134 -159 268c0 235 165 341 370 341c204 0 369 -106 369 -341z" />
    <glyph glyph-name="Delta" unicode="&#x2206;" horiz-adv-x="753" 
d="M407 705l329 -705h-719l329 705h61zM376 527l-186 -424h372z" />
    <glyph glyph-name="uni0394" unicode="&#x394;" horiz-adv-x="753" 
d="M407 705l329 -705h-719l329 705h61zM376 527l-186 -424h372z" />
    <glyph glyph-name="uni03A9" unicode="&#x3a9;" horiz-adv-x="834" 
d="M786 371c0 -134 -81 -229 -160 -268h150v-103h-299v112c83 23 184 114 184 259c0 155 -110 237 -244 237c-136 0 -245 -82 -245 -237c0 -145 100 -236 183 -259v-112h-298v103h149c-79 39 -159 134 -159 268c0 235 165 341 370 341c204 0 369 -106 369 -341z" />
    <glyph glyph-name="uni037E" unicode="&#x37e;" horiz-adv-x="246" 
d="M121 402c-39 0 -70 31 -70 70c0 38 31 69 70 69c38 0 70 -31 70 -69c0 -39 -32 -70 -70 -70zM120 132c42 0 71 -29 71 -84c0 -91 -41 -177 -153 -178l-17 51c47 2 83 33 89 73c-33 5 -58 33 -58 68c0 39 31 70 68 70z" />
    <glyph glyph-name="anoteleia" unicode="&#x387;" horiz-adv-x="231" 
d="M181 468c0 -40 -32 -70 -70 -70c-39 0 -70 30 -70 70c0 38 31 69 70 69c38 0 70 -31 70 -69z" />
    <glyph glyph-name="onehalf" unicode="&#xbd;" horiz-adv-x="927" 
d="M204 705h33v-406h-74v334l-82 -18l-15 59zM623 701h89l-483 -701h-89zM676 64h180v-64h-317v32c71 109 245 136 245 225c0 51 -41 92 -91 92c-51 0 -88 -45 -88 -92v-5h-66v9c0 90 72 155 155 155c85 0 159 -67 159 -155c0 -126 -129 -143 -177 -197z" />
    <glyph glyph-name="brokenbar" unicode="&#xa6;" horiz-adv-x="305" 
d="M106 415v383h93v-383h-93zM106 -127v383h93v-383h-93z" />
    <glyph glyph-name="Q" unicode="Q" horiz-adv-x="843" 
d="M776 57l-57 -68l-83 70c-61 -42 -135 -66 -215 -66c-207 0 -374 161 -374 359s167 359 374 359c206 0 374 -161 374 -359c0 -90 -36 -171 -93 -232zM421 105c44 0 86 12 121 33l-49 41l58 69l56 -48c38 39 62 93 62 152c0 136 -111 247 -248 247
c-138 0 -249 -111 -249 -247c0 -137 111 -247 249 -247z" />
    <glyph glyph-name="notequal" unicode="&#x2260;" horiz-adv-x="639" 
d="M196 33h-88l65 128h-96v100h148l96 186h-244v100h296c66 130 66 131 67 131h87l-67 -131h100v-100h-151l-96 -186h247v-100h-298z" />
    <glyph glyph-name="infinity" unicode="&#x221e;" horiz-adv-x="862" 
d="M797 366c0 -120 -85 -185 -184 -185c-76 0 -129 40 -186 120c-55 -78 -110 -120 -185 -120c-105 0 -184 72 -184 185c0 120 84 186 184 186c75 0 130 -44 185 -121c57 80 110 121 186 121c105 0 184 -73 184 -186zM601 269c56 0 100 30 100 97s-44 97 -100 97
s-89 -36 -129 -97c40 -61 73 -97 129 -97zM253 269c56 0 91 39 129 97c-38 58 -73 97 -129 97c-55 0 -99 -30 -99 -97s44 -97 99 -97z" />
    <glyph glyph-name="plusminus" unicode="&#xb1;" horiz-adv-x="640" 
d="M573 486v-99h-203v-203h-98v203h-203v99h203v202h98v-202h203zM573 0h-504v100h504v-100z" />
    <glyph glyph-name="lessequal" unicode="&#x2264;" horiz-adv-x="628" 
d="M558 100v-100h-489v100h489zM558 708v-113l-328 -155l328 -155v-112l-489 239v56z" />
    <glyph glyph-name="greaterequal" unicode="&#x2265;" horiz-adv-x="627" 
d="M558 100v-100h-489v100h489zM69 173v112l328 155l-328 155v113l489 -240v-56z" />
    <glyph glyph-name="dotaccent" unicode="&#x2d9;" horiz-adv-x="379" 
d="M176 872c32 0 58 -26 58 -58s-26 -59 -58 -59c-33 0 -59 27 -59 59s26 58 59 58z" />
    <glyph glyph-name="breve" unicode="&#x2d8;" horiz-adv-x="500" 
d="M250 761c-97 0 -163 46 -171 144l74 6c10 -49 41 -75 97 -75s88 26 97 75l75 -6c-8 -98 -75 -144 -172 -144z" />
    <glyph glyph-name="uni2117" unicode="&#x2117;" horiz-adv-x="865" 
 />
    <glyph glyph-name="zeta" unicode="&#x3b6;" horiz-adv-x="538" 
d="M532 754v-71c-135 -103 -374 -313 -374 -457c0 -132 354 -59 354 -235c0 -123 -183 -174 -186 -175l-40 63c50 28 104 62 104 99c0 18 -16 31 -44 40c-116 35 -310 33 -310 199c0 144 177 328 334 441h-308v96h470z" />
    <glyph glyph-name="eta" unicode="&#x3b7;" horiz-adv-x="636" 
d="M344 552c154 0 233 -76 233 -248v-304h-120v304c0 96 -50 143 -133 143c-57 0 -102 -18 -137 -50v-397h-120v542h120v-41c42 33 97 51 157 51z" />
    <glyph glyph-name="theta" unicode="&#x3b8;" horiz-adv-x="650" 
d="M326 760c156 0 282 -148 282 -388s-126 -379 -282 -379s-282 139 -282 379s126 388 282 388zM326 89c100 0 166 109 169 235h-338c1 -136 77 -235 169 -235zM326 664c-101 0 -167 -117 -169 -243h338c-2 135 -77 243 -169 243z" />
    <glyph glyph-name="iota" unicode="&#x3b9;" horiz-adv-x="261" 
d="M70 0v542h120v-542h-120z" />
    <glyph glyph-name="kappa" unicode="&#x3ba;" horiz-adv-x="607" 
d="M393 332l204 -332h-133l-151 241l-126 -123v-118h-120v542h120v-266l266 266h141z" />
    <glyph glyph-name="lambda" unicode="&#x3bb;" horiz-adv-x="606" 
d="M373 585l221 -585h-129l-142 415l-17 -16l-153 -399h-129l229 536l23 20c-29 73 -95 112 -164 112c-13 0 -25 -2 -37 -3v91c12 2 25 4 41 4c115 0 214 -60 257 -175z" />
    <glyph glyph-name="uni03BC" unicode="&#x3bc;" horiz-adv-x="649" 
d="M462 542h119v-542h-119v41c-39 -31 -93 -48 -151 -48c-52 0 -97 21 -124 61v-226h-120v714h120v-301c0 -96 50 -143 133 -143c59 0 105 18 142 50v394z" />
    <glyph glyph-name="nu" unicode="&#x3bd;" horiz-adv-x="617" 
d="M473 542h126l-262 -542h-57l-262 542h126l165 -347z" />
    <glyph glyph-name="xi" unicode="&#x3be;" horiz-adv-x="535" 
d="M516 754v-76c-171 -11 -302 -71 -302 -150c0 -88 132 -126 254 -126v-82c-187 -2 -304 -49 -304 -111c0 -130 350 -47 350 -221c0 -118 -169 -169 -171 -170l-50 62c47 25 97 59 97 93c0 22 -23 34 -57 42c-120 27 -296 45 -296 186c0 88 75 145 184 174
c-74 27 -127 77 -127 149c0 52 28 102 99 134h-146v96h469z" />
    <glyph glyph-name="omicron" unicode="&#x3bf;" 
d="M335 552c163 0 296 -125 296 -280c0 -154 -133 -279 -296 -279c-164 0 -297 125 -297 279c0 155 133 280 297 280zM335 98c98 0 178 78 178 174c0 97 -80 175 -178 175c-99 0 -179 -78 -179 -175c0 -96 80 -174 179 -174z" />
    <glyph glyph-name="rho" unicode="&#x3c1;" horiz-adv-x="656" 
d="M329 552c153 0 288 -113 288 -280c0 -165 -124 -279 -276 -279c-64 0 -121 17 -169 47v-212h-119v468c0 146 123 256 276 256zM321 98c101 0 178 72 178 174c0 100 -73 175 -176 175c-63 0 -151 -46 -151 -139v-157c36 -33 89 -53 149 -53z" />
    <glyph glyph-name="uni03C2" unicode="&#x3c2;" horiz-adv-x="566" 
d="M397 74c49 -19 100 -59 100 -115c0 -77 -90 -136 -160 -153l-41 61c47 31 84 57 84 82c0 24 -36 40 -72 51c-137 42 -269 116 -269 276c0 156 138 276 292 276c85 0 164 -39 212 -107l-77 -70c-30 45 -80 72 -135 72c-94 0 -175 -76 -175 -171c0 -135 134 -161 241 -202z
" />
    <glyph glyph-name="sigma" unicode="&#x3c3;" horiz-adv-x="676" 
d="M648 542v-96h-125c63 -35 104 -96 104 -184c0 -143 -129 -269 -292 -269c-164 0 -297 125 -297 279c0 153 133 270 297 270h313zM335 98c98 0 178 78 178 174c0 94 -80 171 -178 171c-99 0 -179 -77 -179 -171c0 -96 80 -174 179 -174z" />
    <glyph glyph-name="tau" unicode="&#x3c4;" horiz-adv-x="520" 
d="M495 542v-96h-174v-446h-120v446h-177v96h471z" />
    <glyph glyph-name="upsilon" unicode="&#x3c5;" horiz-adv-x="627" 
d="M569 542v-323c0 -143 -123 -226 -256 -226c-123 0 -255 77 -255 226v323h120v-300c0 -92 49 -148 135 -148c92 0 135 61 135 148v300h121z" />
    <glyph glyph-name="phi" unicode="&#x3c6;" horiz-adv-x="830" 
d="M793 267c0 -158 -153 -274 -322 -274v-165h-112v165c-169 0 -321 116 -321 274c0 120 81 220 198 267l39 -87c-79 -28 -120 -101 -120 -177c0 -101 78 -183 199 -183h5v460c27 5 55 7 83 7c180 0 351 -79 351 -287zM471 458v-371h5c121 0 199 82 199 183
c0 119 -81 188 -200 188h-4z" />
    <glyph glyph-name="chi" unicode="&#x3c7;" horiz-adv-x="585" 
d="M294 178l-144 -178h-130l206 276l-204 266h135l137 -178l136 178h135l-204 -266l206 -276h-130z" />
    <glyph glyph-name="psi" unicode="&#x3c8;" horiz-adv-x="818" 
d="M640 542h120v-323c0 -141 -100 -226 -293 -226v-165h-115v165c-195 0 -294 87 -294 226v323h120v-300c0 -94 58 -146 167 -148h7v519h115v-519h6c112 0 167 50 167 148v300z" />
    <glyph glyph-name="omega" unicode="&#x3c9;" horiz-adv-x="878" 
d="M581 444l2 107c142 -5 256 -109 256 -279c0 -171 -89 -279 -237 -279c-86 0 -140 49 -163 110c-25 -61 -79 -110 -163 -110c-150 0 -238 108 -238 279c0 170 114 274 256 279v-107c-79 -13 -138 -77 -138 -172c0 -108 44 -174 127 -174c68 0 99 71 99 135v105h113v-105
c0 -64 30 -135 99 -135c83 0 127 66 127 174c0 95 -59 159 -140 172z" />
    <glyph glyph-name="hungarumlaut" unicode="&#x2dd;" horiz-adv-x="500" 
d="M155 925l103 -35l-115 -133h-83zM226 757l96 168l109 -37l-122 -131h-83z" />
    <glyph glyph-name="ring" unicode="&#x2da;" horiz-adv-x="500" 
d="M143 770c0 56 50 105 106 105s106 -48 106 -105s-50 -105 -106 -105s-106 49 -106 105zM249 713c32 0 57 26 57 58c0 31 -26 57 -57 57c-32 0 -57 -26 -57 -58c0 -31 25 -57 57 -57z" />
    <glyph glyph-name="caron" unicode="&#x2c7;" horiz-adv-x="500" 
d="M211 752l-145 151h85l97 -92l97 92h86l-146 -151h-74z" />
    <glyph glyph-name="ogonek" unicode="&#x2db;" horiz-adv-x="500" 
d="M319 -110l2 -58c-20 -3 -38 -5 -56 -5c-67 0 -103 29 -103 83c0 39 40 83 51 94l77 -4c-7 -9 -42 -45 -42 -72c0 -22 14 -36 35 -39c12 -1 21 -1 36 1z" />
    <glyph glyph-name="logicalnot" unicode="&#xac;" horiz-adv-x="594" 
d="M542 490v-272h-101v171h-403v101h504z" />
    <glyph glyph-name="ordfeminine" unicode="&#xaa;" horiz-adv-x="496" 
d="M349 694h86v-375h-86v25c-32 -21 -70 -33 -112 -33c-117 0 -190 94 -190 196s73 195 190 195c40 0 79 -12 112 -31v23zM349 420v171c-24 21 -60 34 -97 34c-73 0 -122 -55 -122 -118c0 -64 49 -120 122 -120c38 0 72 13 97 33z" />
    <glyph glyph-name="ordmasculine" unicode="&#xba;" horiz-adv-x="507" 
d="M249 703c114 0 207 -87 207 -196c0 -108 -93 -195 -207 -195c-115 0 -207 87 -207 195c0 109 92 196 207 196zM249 388c67 0 122 54 122 119c0 66 -55 120 -122 120c-68 0 -122 -54 -122 -120c0 -65 54 -119 122 -119z" />
    <glyph glyph-name="onequarter" unicode="&#xbc;" horiz-adv-x="883" 
d="M204 705h33v-406h-74v334l-82 -18l-15 59zM760 152h68v-62h-68v-90h-72v90h-211l-15 37l241 280h57v-255zM688 152v143l-123 -143h123zM622 701h89l-483 -701h-89z" />
    <glyph glyph-name="threequarters" unicode="&#xbe;" horiz-adv-x="900" 
d="M54 704h290v-33l-108 -134c67 -12 116 -48 116 -113c0 -82 -65 -131 -163 -131c-64 0 -102 6 -155 30l27 57c45 -19 82 -24 130 -24s89 24 89 69c0 31 -29 65 -99 65h-28l-14 30l96 121h-181v63zM648 701h88l-483 -701h-88zM785 152h68v-62h-68v-90h-72v90h-211l-15 37
l241 280h57v-255zM713 152v143l-123 -143h123z" />
    <glyph glyph-name="minus" unicode="&#x2212;" horiz-adv-x="528" 
d="M479 382v-99h-432v99h432z" />
    <glyph glyph-name="multiply" unicode="&#xd7;" horiz-adv-x="604" 
d="M378 316l180 -180l-69 -71l-181 180l-180 -180l-71 71l181 180l-181 180l70 71l181 -181l181 181l70 -70z" />
    <glyph glyph-name="divide" unicode="&#xf7;" horiz-adv-x="526" 
d="M484 383v-100h-440v100h440zM259 501c-35 0 -64 28 -64 64c0 35 29 63 64 63s64 -28 64 -63c0 -36 -29 -64 -64 -64zM259 26c-35 0 -64 29 -64 64s29 64 64 64s64 -29 64 -64s-29 -64 -64 -64z" />
    <glyph glyph-name="approxequal" unicode="&#x2248;" horiz-adv-x="626" 
d="M435 237c50 0 87 25 116 51l33 -90c-31 -29 -75 -60 -139 -60c-77 0 -142 55 -228 55c-57 0 -106 -26 -132 -43l-31 85c20 15 82 57 154 57c91 0 148 -55 227 -55zM435 524c50 0 87 25 116 51l33 -91c-31 -28 -75 -59 -139 -59c-77 0 -142 55 -228 55
c-57 0 -106 -26 -132 -44l-31 86c20 15 82 57 154 57c91 0 148 -55 227 -55z" />
    <glyph glyph-name="partialdiff" unicode="&#x2202;" horiz-adv-x="662" 
d="M310 455c86 0 165 -30 191 -65c-1 146 -92 219 -206 219c-71 0 -135 -21 -159 -29l-51 92c56 26 135 40 238 40c153 0 293 -104 293 -386c0 -184 -102 -334 -279 -334c-160 0 -290 89 -290 238c0 159 140 225 263 225zM333 361c-91 0 -166 -45 -166 -129
c0 -83 76 -143 170 -143c83 0 156 70 156 145c0 83 -75 127 -160 127z" />
    <glyph glyph-name="summation" unicode="&#x2211;" horiz-adv-x="679" 
d="M63 705h568v-104h-392l221 -329l-221 -329h392v-104h-568v54l257 379l-257 379v54z" />
    <glyph glyph-name="product" unicode="&#x220f;" horiz-adv-x="748" 
d="M82 -161v866h593v-866h-120v763h-353v-763h-120z" />
    <glyph glyph-name="integral" unicode="&#x222b;" horiz-adv-x="450" 
d="M437 743l-12 -87c-13 0 -23 1 -33 1c-72 0 -76 -23 -91 -118l-81 -516c-24 -152 -82 -208 -174 -208c-22 0 -41 2 -59 5l14 93h9c73 0 77 24 92 118l84 529c22 142 68 194 159 194c52 0 81 -11 92 -11z" />
    <glyph glyph-name="radical" unicode="&#x221a;" horiz-adv-x="824" 
d="M476 186l342 729h114l-432 -915h-60l-259 557h-145v96h234z" />
    <glyph glyph-name="lozenge" unicode="&#x25ca;" horiz-adv-x="490" 
d="M220 754h44l187 -377l-187 -377h-44l-186 377zM143 377l99 -201l99 201l-99 201z" />
    <glyph glyph-name="Agrave" unicode="&#xc0;" horiz-adv-x="757" 
d="M614 0l-70 156h-332l-68 -156h-130l333 705h63l333 -705h-129zM378 532l-122 -276h245zM340 752l-181 161l130 11l127 -172h-76z" />
    <glyph glyph-name="Adieresis" unicode="&#xc4;" horiz-adv-x="757" 
d="M614 0l-70 156h-332l-68 -156h-130l333 705h63l333 -705h-129zM378 532l-122 -276h245zM472 872c32 0 59 -26 59 -58s-27 -59 -59 -59s-59 27 -59 59s27 58 59 58zM285 872c32 0 58 -26 58 -58s-26 -59 -58 -59c-33 0 -59 27 -59 59s26 58 59 58z" />
    <glyph glyph-name="Egrave" unicode="&#xc8;" horiz-adv-x="652" 
d="M197 104h410v-104h-530v705h509v-104h-389v-209h327v-100h-327v-188zM299 752l-181 161l130 11l127 -172h-76z" />
    <glyph glyph-name="Edieresis" unicode="&#xcb;" horiz-adv-x="652" 
d="M197 104h410v-104h-530v705h509v-104h-389v-209h327v-100h-327v-188zM428 872c32 0 59 -26 59 -58s-27 -59 -59 -59s-59 27 -59 59s27 58 59 58zM241 872c32 0 58 -26 58 -58s-26 -59 -58 -59c-33 0 -59 27 -59 59s26 58 59 58z" />
    <glyph glyph-name="Aring" unicode="&#xc5;" horiz-adv-x="757" 
d="M272 770c0 56 50 105 106 105s106 -48 106 -105c0 -41 -26 -77 -61 -94l320 -676h-129l-70 156h-332l-68 -156h-130l319 675c-36 18 -61 55 -61 95zM378 532l-122 -276h245zM378 713c32 0 57 26 57 58c0 31 -26 57 -57 57c-32 0 -57 -26 -57 -58c0 -31 25 -57 57 -57z
" />
    <glyph glyph-name="Ccedilla" unicode="&#xc7;" horiz-adv-x="747" 
d="M329 -77l57 71c-190 16 -339 170 -339 358c0 198 167 360 372 360c117 0 222 -53 290 -135l-95 -78c-44 60 -115 100 -195 100c-134 0 -245 -102 -245 -247c0 -143 111 -246 245 -246c80 0 151 39 195 99l95 -78c-60 -72 -148 -121 -248 -131l-22 -51c13 0 38 -19 38 -50
c0 -38 -32 -82 -124 -82c-24 0 -61 3 -61 3l-3 43s28 -3 42 -3c42 0 67 16 67 37c0 22 -32 30 -69 30z" />
    <glyph glyph-name="Eacute" unicode="&#xc9;" horiz-adv-x="652" 
d="M197 104h410v-104h-530v705h509v-104h-389v-209h327v-100h-327v-188zM555 913l-181 -161h-76l127 172z" />
    <glyph glyph-name="Ntilde" unicode="&#xd1;" horiz-adv-x="777" 
d="M577 705h123v-705h-61l-439 483v-483h-123v705h61l439 -483v483zM243 745l-57 6c5 92 51 144 116 144c61 0 118 -43 160 -43c30 0 55 25 66 66l56 -7c-5 -90 -54 -144 -111 -144c-60 0 -120 44 -160 44c-36 0 -58 -26 -70 -66z" />
    <glyph glyph-name="Odieresis" unicode="&#xd6;" horiz-adv-x="843" 
d="M421 711c207 0 374 -161 374 -359s-167 -359 -374 -359s-374 161 -374 359s167 359 374 359zM421 105c137 0 248 110 248 247c0 136 -111 247 -248 247s-248 -111 -248 -247c0 -137 111 -247 248 -247zM513 872c32 0 59 -26 59 -58s-27 -59 -59 -59s-59 27 -59 59
s27 58 59 58zM326 872c32 0 58 -26 58 -58s-26 -59 -58 -59c-33 0 -59 27 -59 59s26 58 59 58z" />
    <glyph glyph-name="Udieresis" unicode="&#xdc;" horiz-adv-x="756" 
d="M685 705v-422c0 -161 -106 -290 -307 -290c-200 0 -306 128 -306 290v422h120v-392c0 -136 64 -210 186 -210s187 75 187 210v392h120zM473 872c32 0 59 -26 59 -58s-27 -59 -59 -59s-59 27 -59 59s27 58 59 58zM286 872c32 0 58 -26 58 -58s-26 -59 -58 -59
c-33 0 -59 27 -59 59s26 58 59 58z" />
    <glyph glyph-name="aacute" unicode="&#xe1;" 
d="M483 542h120v-542h-120v45c-46 -32 -104 -52 -168 -52c-168 0 -272 134 -272 280s104 280 272 280c61 0 122 -20 168 -51v40zM483 151v242c-37 34 -89 54 -148 54c-106 0 -177 -81 -177 -174s72 -175 177 -175c60 0 112 20 148 53zM556 772l-181 -161h-76l127 172z" />
    <glyph glyph-name="agrave" unicode="&#xe0;" 
d="M483 542h120v-542h-120v45c-46 -32 -104 -52 -168 -52c-168 0 -272 134 -272 280s104 280 272 280c61 0 122 -20 168 -51v40zM483 151v242c-37 34 -89 54 -148 54c-106 0 -177 -81 -177 -174s72 -175 177 -175c60 0 112 20 148 53zM300 611l-181 161l130 11l127 -172h-76
z" />
    <glyph glyph-name="acircumflex" unicode="&#xe2;" 
d="M483 542h120v-542h-120v45c-46 -32 -104 -52 -168 -52c-168 0 -272 134 -272 280s104 280 272 280c61 0 122 -20 168 -51v40zM483 151v242c-37 34 -89 54 -148 54c-106 0 -177 -81 -177 -174s72 -175 177 -175c60 0 112 20 148 53zM157 611l145 151h74l146 -151h-86
l-97 91l-97 -91h-85z" />
    <glyph glyph-name="adieresis" unicode="&#xe4;" 
d="M483 542h120v-542h-120v45c-46 -32 -104 -52 -168 -52c-168 0 -272 134 -272 280s104 280 272 280c61 0 122 -20 168 -51v40zM483 151v242c-37 34 -89 54 -148 54c-106 0 -177 -81 -177 -174s72 -175 177 -175c60 0 112 20 148 53zM433 731c32 0 59 -26 59 -58
s-27 -59 -59 -59s-59 27 -59 59s27 58 59 58zM246 731c32 0 58 -26 58 -58s-26 -59 -58 -59c-33 0 -59 27 -59 59s26 58 59 58z" />
    <glyph glyph-name="atilde" unicode="&#xe3;" 
d="M483 542h120v-542h-120v45c-46 -32 -104 -52 -168 -52c-168 0 -272 134 -272 280s104 280 272 280c61 0 122 -20 168 -51v40zM483 151v242c-37 34 -89 54 -148 54c-106 0 -177 -81 -177 -174s72 -175 177 -175c60 0 112 20 148 53zM198 604l-57 6c5 92 51 144 116 144
c61 0 118 -43 160 -43c30 0 55 25 66 66l56 -7c-5 -90 -54 -144 -111 -144c-60 0 -120 44 -160 44c-36 0 -58 -26 -70 -66z" />
    <glyph glyph-name="aring" unicode="&#xe5;" 
d="M483 542h120v-542h-120v45c-46 -32 -104 -52 -168 -52c-168 0 -272 134 -272 280s104 280 272 280c61 0 122 -20 168 -51v40zM483 151v242c-37 34 -89 54 -148 54c-106 0 -177 -81 -177 -174s72 -175 177 -175c60 0 112 20 148 53zM233 721c0 56 50 105 106 105
s106 -48 106 -105s-50 -105 -106 -105s-106 49 -106 105zM339 664c32 0 57 26 57 58c0 31 -26 57 -57 57c-32 0 -57 -26 -57 -58c0 -31 25 -57 57 -57z" />
    <glyph glyph-name="ccedilla" unicode="&#xe7;" horiz-adv-x="578" 
d="M244 -77l58 72c-148 15 -263 133 -263 277c0 155 133 280 296 280c86 0 160 -40 209 -104l-78 -70c-29 42 -77 69 -131 69c-99 0 -179 -78 -179 -175c0 -96 80 -174 179 -174c53 0 101 27 131 70l76 -70c-41 -54 -99 -91 -165 -101l-23 -52c13 0 38 -19 38 -50
c0 -38 -32 -82 -124 -82c-24 0 -61 3 -61 3l-3 43s28 -3 42 -3c42 0 67 16 67 37c0 22 -32 30 -69 30z" />
    <glyph glyph-name="egrave" unicode="&#xe8;" horiz-adv-x="620" 
d="M579 237h-420c17 -86 94 -143 175 -143c60 0 116 27 149 72l77 -63c-50 -67 -138 -110 -243 -110c-164 0 -277 125 -277 279c0 155 113 280 277 280c162 0 263 -118 263 -283c0 -14 -1 -32 -1 -32zM317 458c-82 0 -142 -60 -156 -137h304c-7 75 -50 137 -148 137z
M279 611l-181 161l130 11l127 -172h-76z" />
    <glyph glyph-name="ecircumflex" unicode="&#xea;" horiz-adv-x="620" 
d="M579 237h-420c17 -86 94 -143 175 -143c60 0 116 27 149 72l77 -63c-50 -67 -138 -110 -243 -110c-164 0 -277 125 -277 279c0 155 113 280 277 280c162 0 263 -118 263 -283c0 -14 -1 -32 -1 -32zM317 458c-82 0 -142 -60 -156 -137h304c-7 75 -50 137 -148 137z
M132 611l145 151h74l146 -151h-86l-97 91l-97 -91h-85z" />
    <glyph glyph-name="edieresis" unicode="&#xeb;" horiz-adv-x="620" 
d="M579 237h-420c17 -86 94 -143 175 -143c60 0 116 27 149 72l77 -63c-50 -67 -138 -110 -243 -110c-164 0 -277 125 -277 279c0 155 113 280 277 280c162 0 263 -118 263 -283c0 -14 -1 -32 -1 -32zM317 458c-82 0 -142 -60 -156 -137h304c-7 75 -50 137 -148 137z
M408 731c32 0 59 -26 59 -58s-27 -59 -59 -59s-59 27 -59 59s27 58 59 58zM221 731c32 0 58 -26 58 -58s-26 -59 -58 -59c-33 0 -59 27 -59 59s26 58 59 58z" />
    <glyph glyph-name="eacute" unicode="&#xe9;" horiz-adv-x="620" 
d="M579 237h-420c17 -86 94 -143 175 -143c60 0 116 27 149 72l77 -63c-50 -67 -138 -110 -243 -110c-164 0 -277 125 -277 279c0 155 113 280 277 280c162 0 263 -118 263 -283c0 -14 -1 -32 -1 -32zM317 458c-82 0 -142 -60 -156 -137h304c-7 75 -50 137 -148 137z
M535 772l-181 -161h-76l127 172z" />
    <glyph glyph-name="igrave" unicode="&#xec;" horiz-adv-x="261" 
d="M95 601l-181 161l130 11l127 -172h-76zM70 0v542h120v-542h-120z" />
    <glyph glyph-name="icircumflex" unicode="&#xee;" horiz-adv-x="261" 
d="M70 0v542h120v-542h-120zM-51 601l145 151h74l146 -151h-86l-97 91l-97 -91h-85z" />
    <glyph glyph-name="idieresis" unicode="&#xef;" horiz-adv-x="261" 
d="M225 721c32 0 59 -26 59 -58s-27 -59 -59 -59s-59 27 -59 59s27 58 59 58zM38 721c32 0 58 -26 58 -58s-26 -59 -58 -59c-33 0 -59 27 -59 59s26 58 59 58zM70 0v542h120v-542h-120z" />
    <glyph glyph-name="iacute" unicode="&#xed;" horiz-adv-x="261" 
d="M353 762l-181 -161h-76l127 172zM70 0v542h120v-542h-120z" />
    <glyph glyph-name="ntilde" unicode="&#xf1;" horiz-adv-x="637" 
d="M344 552c154 0 233 -76 233 -248v-304h-120v304c0 95 -50 143 -133 143c-57 0 -102 -18 -137 -50v-397h-120v542h120v-41c42 33 97 51 157 51zM176 594l-57 6c5 92 51 144 116 144c61 0 118 -43 160 -43c30 0 55 25 66 66l56 -7c-5 -90 -54 -144 -111 -144
c-60 0 -120 44 -160 44c-36 0 -58 -26 -70 -66z" />
    <glyph glyph-name="ograve" unicode="&#xf2;" 
d="M334 552c163 0 296 -125 296 -280c0 -154 -133 -279 -296 -279s-296 125 -296 279c0 155 133 280 296 280zM334 98c99 0 179 78 179 174c0 97 -80 175 -179 175s-179 -78 -179 -175c0 -96 80 -174 179 -174zM296 601l-181 161l130 11l127 -172h-76z" />
    <glyph glyph-name="ocircumflex" unicode="&#xf4;" 
d="M334 552c163 0 296 -125 296 -280c0 -154 -133 -279 -296 -279s-296 125 -296 279c0 155 133 280 296 280zM334 98c99 0 179 78 179 174c0 97 -80 175 -179 175s-179 -78 -179 -175c0 -96 80 -174 179 -174zM150 601l145 151h74l146 -151h-86l-97 91l-97 -91h-85z" />
    <glyph glyph-name="otilde" unicode="&#xf5;" 
d="M334 552c163 0 296 -125 296 -280c0 -154 -133 -279 -296 -279s-296 125 -296 279c0 155 133 280 296 280zM334 98c99 0 179 78 179 174c0 97 -80 175 -179 175s-179 -78 -179 -175c0 -96 80 -174 179 -174zM191 594l-57 6c5 92 51 144 116 144c61 0 118 -43 160 -43
c30 0 55 25 66 66l56 -7c-5 -90 -54 -144 -111 -144c-60 0 -120 44 -160 44c-36 0 -58 -26 -70 -66z" />
    <glyph glyph-name="odieresis" unicode="&#xf6;" 
d="M334 552c163 0 296 -125 296 -280c0 -154 -133 -279 -296 -279s-296 125 -296 279c0 155 133 280 296 280zM334 98c99 0 179 78 179 174c0 97 -80 175 -179 175s-179 -78 -179 -175c0 -96 80 -174 179 -174zM426 721c32 0 59 -26 59 -58s-27 -59 -59 -59s-59 27 -59 59
s27 58 59 58zM239 721c32 0 58 -26 58 -58s-26 -59 -58 -59c-33 0 -59 27 -59 59s26 58 59 58z" />
    <glyph glyph-name="oacute" unicode="&#xf3;" 
d="M334 552c163 0 296 -125 296 -280c0 -154 -133 -279 -296 -279s-296 125 -296 279c0 155 133 280 296 280zM334 98c99 0 179 78 179 174c0 97 -80 175 -179 175s-179 -78 -179 -175c0 -96 80 -174 179 -174zM552 762l-181 -161h-76l127 172z" />
    <glyph glyph-name="ugrave" unicode="&#xf9;" horiz-adv-x="641" 
d="M454 542h120v-542h-120v44c-43 -33 -100 -51 -161 -51c-154 0 -233 76 -233 248v301h119v-301c0 -95 51 -143 134 -143c58 0 105 18 141 50v394zM285 601l-181 161l130 11l127 -172h-76z" />
    <glyph glyph-name="ucircumflex" unicode="&#xfb;" horiz-adv-x="641" 
d="M454 542h120v-542h-120v44c-43 -33 -100 -51 -161 -51c-154 0 -233 76 -233 248v301h119v-301c0 -95 51 -143 134 -143c58 0 105 18 141 50v394zM134 601l145 151h74l146 -151h-86l-97 91l-97 -91h-85z" />
    <glyph glyph-name="udieresis" unicode="&#xfc;" horiz-adv-x="641" 
d="M454 542h120v-542h-120v44c-43 -33 -100 -51 -161 -51c-154 0 -233 76 -233 248v301h119v-301c0 -95 51 -143 134 -143c58 0 105 18 141 50v394zM410 721c32 0 59 -26 59 -58s-27 -59 -59 -59s-59 27 -59 59s27 58 59 58zM223 721c32 0 58 -26 58 -58s-26 -59 -58 -59
c-33 0 -59 27 -59 59s26 58 59 58z" />
    <glyph glyph-name="uacute" unicode="&#xfa;" horiz-adv-x="641" 
d="M454 542h120v-542h-120v44c-43 -33 -100 -51 -161 -51c-154 0 -233 76 -233 248v301h119v-301c0 -95 51 -143 134 -143c58 0 105 18 141 50v394zM541 762l-181 -161h-76l127 172z" />
    <glyph glyph-name="Atilde" unicode="&#xc3;" horiz-adv-x="757" 
d="M614 0l-70 156h-332l-68 -156h-130l333 705h63l333 -705h-129zM378 532l-122 -276h245zM237 745l-57 6c5 92 51 144 116 144c61 0 118 -43 160 -43c30 0 55 25 66 66l56 -7c-5 -90 -54 -144 -111 -144c-60 0 -120 44 -160 44c-36 0 -58 -26 -70 -66z" />
    <glyph glyph-name="Otilde" unicode="&#xd5;" horiz-adv-x="843" 
d="M421 711c207 0 374 -161 374 -359s-167 -359 -374 -359s-374 161 -374 359s167 359 374 359zM421 105c137 0 248 110 248 247c0 136 -111 247 -248 247s-248 -111 -248 -247c0 -137 111 -247 248 -247zM277 745l-57 6c5 92 51 144 116 144c61 0 118 -43 160 -43
c30 0 55 25 66 66l56 -7c-5 -90 -54 -144 -111 -144c-60 0 -120 44 -160 44c-36 0 -58 -26 -70 -66z" />
    <glyph glyph-name="Acircumflex" unicode="&#xc2;" horiz-adv-x="757" 
d="M614 0l-70 156h-332l-68 -156h-130l333 705h63l333 -705h-129zM378 532l-122 -276h245zM196 752l145 151h74l146 -151h-86l-97 91l-97 -91h-85z" />
    <glyph glyph-name="Ecircumflex" unicode="&#xca;" horiz-adv-x="652" 
d="M197 104h410v-104h-530v705h509v-104h-389v-209h327v-100h-327v-188zM152 752l145 151h74l146 -151h-86l-97 91l-97 -91h-85z" />
    <glyph glyph-name="Aacute" unicode="&#xc1;" horiz-adv-x="757" 
d="M614 0l-70 156h-332l-68 -156h-130l333 705h63l333 -705h-129zM378 532l-122 -276h245zM600 913l-181 -161h-76l127 172z" />
    <glyph glyph-name="Igrave" unicode="&#xcc;" horiz-adv-x="282" 
d="M203 705v-705h-124v705h124zM106 765l-181 161l130 11l127 -172h-76z" />
    <glyph glyph-name="Icircumflex" unicode="&#xce;" horiz-adv-x="282" 
d="M203 705v-705h-124v705h124zM-40 765l145 151h74l146 -151h-86l-97 91l-97 -91h-85z" />
    <glyph glyph-name="Idieresis" unicode="&#xcf;" horiz-adv-x="282" 
d="M203 705v-705h-124v705h124zM237 885c32 0 59 -26 59 -58s-27 -59 -59 -59s-59 27 -59 59s27 58 59 58zM50 885c32 0 58 -26 58 -58s-26 -59 -58 -59c-33 0 -59 27 -59 59s26 58 59 58z" />
    <glyph glyph-name="Iacute" unicode="&#xcd;" horiz-adv-x="282" 
d="M203 705v-705h-124v705h124zM364 926l-181 -161h-76l127 172z" />
    <glyph glyph-name="Ograve" unicode="&#xd2;" horiz-adv-x="843" 
d="M421 711c207 0 374 -161 374 -359s-167 -359 -374 -359s-374 161 -374 359s167 359 374 359zM421 105c137 0 248 110 248 247c0 136 -111 247 -248 247s-248 -111 -248 -247c0 -137 111 -247 248 -247zM381 752l-181 161l130 11l127 -172h-76z" />
    <glyph glyph-name="Ocircumflex" unicode="&#xd4;" horiz-adv-x="843" 
d="M421 711c207 0 374 -161 374 -359s-167 -359 -374 -359s-374 161 -374 359s167 359 374 359zM421 105c137 0 248 110 248 247c0 136 -111 247 -248 247s-248 -111 -248 -247c0 -137 111 -247 248 -247zM235 752l145 151h74l146 -151h-86l-97 91l-97 -91h-85z" />
    <glyph glyph-name="Oacute" unicode="&#xd3;" horiz-adv-x="843" 
d="M421 711c207 0 374 -161 374 -359s-167 -359 -374 -359s-374 161 -374 359s167 359 374 359zM421 105c137 0 248 110 248 247c0 136 -111 247 -248 247s-248 -111 -248 -247c0 -137 111 -247 248 -247zM637 913l-181 -161h-76l127 172z" />
    <glyph glyph-name="Ugrave" unicode="&#xd9;" horiz-adv-x="756" 
d="M685 705v-422c0 -161 -106 -290 -307 -290c-200 0 -306 128 -306 290v422h120v-392c0 -136 64 -210 186 -210s187 75 187 210v392h120zM344 752l-181 161l130 11l127 -172h-76z" />
    <glyph glyph-name="Ucircumflex" unicode="&#xdb;" horiz-adv-x="756" 
d="M685 705v-422c0 -161 -106 -290 -307 -290c-200 0 -306 128 -306 290v422h120v-392c0 -136 64 -210 186 -210s187 75 187 210v392h120zM197 752l145 151h74l146 -151h-86l-97 91l-97 -91h-85z" />
    <glyph glyph-name="Uacute" unicode="&#xda;" horiz-adv-x="756" 
d="M685 705v-422c0 -161 -106 -290 -307 -290c-200 0 -306 128 -306 290v422h120v-392c0 -136 64 -210 186 -210s187 75 187 210v392h120zM600 913l-181 -161h-76l127 172z" />
    <glyph glyph-name="Yacute" unicode="&#xdd;" horiz-adv-x="689" 
d="M538 705h141l-273 -465v-240h-123v240l-272 465h140l194 -336zM567 913l-181 -161h-76l127 172z" />
    <glyph glyph-name="Ydieresis" unicode="&#x178;" horiz-adv-x="689" 
d="M538 705h141l-273 -465v-240h-123v240l-272 465h140l194 -336zM439 872c32 0 59 -26 59 -58s-27 -59 -59 -59s-59 27 -59 59s27 58 59 58zM252 872c32 0 58 -26 58 -58s-26 -59 -58 -59c-33 0 -59 27 -59 59s26 58 59 58z" />
    <glyph glyph-name="ydieresis" unicode="&#xff;" horiz-adv-x="618" 
d="M472 542h122l-225 -571c-46 -117 -170 -158 -281 -158c-18 0 -35 0 -50 1l15 88h14c83 0 157 25 189 98h-15l-220 542h126l160 -398h13zM406 721c32 0 59 -26 59 -58s-27 -59 -59 -59s-59 27 -59 59s27 58 59 58zM219 721c32 0 58 -26 58 -58s-26 -59 -58 -59
c-33 0 -59 27 -59 59s26 58 59 58z" />
    <glyph glyph-name="yacute" unicode="&#xfd;" horiz-adv-x="618" 
d="M472 542h122l-225 -571c-46 -117 -170 -158 -281 -158c-18 0 -35 0 -50 1l15 88h14c83 0 157 25 189 98h-15l-220 542h126l160 -398h13zM533 762l-181 -161h-76l127 172z" />
    <glyph glyph-name="Alphatonos" unicode="&#x386;" horiz-adv-x="757" 
d="M614 0l-70 156h-332l-68 -156h-130l333 705h63l333 -705h-129zM378 532l-122 -276h245zM260 706l-186 -162h-77l133 173z" />
    <glyph glyph-name="Epsilontonos" unicode="&#x388;" horiz-adv-x="652" 
d="M27 706l-186 -162h-77l133 173zM197 104h410v-104h-530v705h509v-104h-389v-209h327v-100h-327v-188z" />
    <glyph glyph-name="Etatonos" unicode="&#x389;" horiz-adv-x="745" 
d="M548 705h120v-705h-120v251h-351v-251h-120v705h120v-350h351v350zM27 706l-186 -162h-77l133 173z" />
    <glyph glyph-name="Iotatonos" unicode="&#x38a;" horiz-adv-x="282" 
d="M203 705v-705h-124v705h124zM27 706l-186 -162h-77l133 173z" />
    <glyph glyph-name="Omicrontonos" unicode="&#x38c;" horiz-adv-x="843" 
d="M119 706l-186 -162h-77l133 173zM421 711c207 0 374 -161 374 -359s-167 -359 -374 -359s-374 161 -374 359s167 359 374 359zM421 105c137 0 248 110 248 247c0 136 -111 247 -248 247s-248 -111 -248 -247c0 -137 111 -247 248 -247z" />
    <glyph glyph-name="Upsilontonos" unicode="&#x38e;" horiz-adv-x="689" 
d="M-13 706l-186 -162h-77l133 173zM538 705h141l-273 -465v-240h-123v240l-272 465h140l194 -336z" />
    <glyph glyph-name="Omegatonos" unicode="&#x38f;" horiz-adv-x="834" 
d="M786 371c0 -134 -81 -229 -160 -268h150v-103h-299v112c83 23 184 114 184 259c0 155 -110 237 -244 237c-136 0 -245 -82 -245 -237c0 -145 100 -236 183 -259v-112h-298v103h149c-79 39 -159 134 -159 268c0 235 165 341 370 341c204 0 369 -106 369 -341zM115 706
l-186 -162h-77l133 173z" />
    <glyph glyph-name="iotadieresistonos" unicode="&#x390;" horiz-adv-x="261" 
d="M70 0v542h120v-542h-120zM-33 707c32 0 58 -26 58 -59c0 -32 -26 -58 -58 -58c-33 0 -59 26 -59 58c0 33 26 59 59 59zM303 707c32 0 58 -26 58 -59c0 -32 -26 -58 -58 -58c-33 0 -59 26 -59 58c0 33 26 59 59 59zM83 582l56 200l92 -20l-83 -180h-65z" />
    <glyph glyph-name="iotatonos" unicode="&#x3af;" horiz-adv-x="261" 
d="M70 0v542h120v-542h-120zM346 758l-186 -162h-77l133 173z" />
    <glyph glyph-name="Iotadieresis" unicode="&#x3aa;" horiz-adv-x="282" 
d="M203 705v-705h-124v705h124zM236 885c32 0 59 -26 59 -58s-27 -59 -59 -59s-59 27 -59 59s27 58 59 58zM49 885c32 0 58 -26 58 -58s-26 -59 -58 -59c-33 0 -59 27 -59 59s26 58 59 58z" />
    <glyph glyph-name="Upsilondieresis" unicode="&#x3ab;" horiz-adv-x="689" 
d="M538 705h141l-273 -465v-240h-123v240l-272 465h140l194 -336zM439 885c32 0 59 -26 59 -58s-27 -59 -59 -59s-59 27 -59 59s27 58 59 58zM252 885c32 0 58 -26 58 -58s-26 -59 -58 -59c-33 0 -59 27 -59 59s26 58 59 58z" />
    <glyph glyph-name="alphatonos" unicode="&#x3ac;" horiz-adv-x="674" 
d="M487 542h120v-542h-120v45c-46 -32 -104 -52 -168 -52c-152 0 -276 115 -276 280c0 166 124 280 276 280c61 0 122 -20 168 -51v40zM487 151v242c-37 34 -89 54 -148 54c-102 0 -178 -76 -178 -174c0 -103 76 -175 178 -175c60 0 112 20 148 53zM535 758l-186 -162h-77
l133 173z" />
    <glyph glyph-name="epsilontonos" unicode="&#x3ad;" horiz-adv-x="582" 
d="M525 758l-186 -162h-77l133 173zM501 142l47 -78c-85 -43 -152 -71 -257 -71c-147 0 -251 40 -251 158c0 61 38 107 104 127c-53 25 -84 71 -84 117c0 123 100 157 241 157c89 0 166 -30 236 -64l-46 -74c-61 27 -119 46 -175 46c-83 0 -141 -21 -141 -78
c0 -26 23 -68 101 -68h120v-77h-143c-70 0 -96 -42 -96 -74c0 -48 51 -77 138 -77c83 0 130 20 206 56z" />
    <glyph glyph-name="etatonos" unicode="&#x3ae;" horiz-adv-x="636" 
d="M344 552c154 0 233 -76 233 -248v-304h-120v304c0 96 -50 143 -133 143c-57 0 -102 -18 -137 -50v-397h-120v542h120v-41c42 33 97 51 157 51zM535 758l-186 -162h-77l133 173z" />
    <glyph glyph-name="iotadieresis" unicode="&#x3ca;" horiz-adv-x="261" 
d="M70 0v542h120v-542h-120zM225 721c32 0 59 -26 59 -58s-27 -59 -59 -59s-59 27 -59 59s27 58 59 58zM38 721c32 0 58 -26 58 -58s-26 -59 -58 -59c-33 0 -59 27 -59 59s26 58 59 58z" />
    <glyph glyph-name="omicrontonos" unicode="&#x3cc;" 
d="M548 758l-186 -162h-77l133 173zM335 552c163 0 296 -125 296 -280c0 -154 -133 -279 -296 -279c-164 0 -297 125 -297 279c0 155 133 280 297 280zM335 98c98 0 178 78 178 174c0 97 -80 175 -178 175c-99 0 -179 -78 -179 -175c0 -96 80 -174 179 -174z" />
    <glyph glyph-name="upsilontonos" unicode="&#x3cd;" horiz-adv-x="627" 
d="M525 758l-186 -162h-77l133 173zM569 542v-323c0 -143 -123 -226 -256 -226c-123 0 -255 77 -255 226v323h120v-300c0 -92 49 -148 135 -148c92 0 135 61 135 148v300h121z" />
    <glyph glyph-name="omegatonos" unicode="&#x3ce;" horiz-adv-x="878" 
d="M581 444l2 107c142 -5 256 -109 256 -279c0 -171 -89 -279 -237 -279c-86 0 -140 49 -163 110c-25 -61 -79 -110 -163 -110c-150 0 -238 108 -238 279c0 170 114 274 256 279v-107c-79 -13 -138 -77 -138 -172c0 -108 44 -174 127 -174c68 0 99 71 99 135v105h113v-105
c0 -64 30 -135 99 -135c83 0 127 66 127 174c0 95 -59 159 -140 172zM652 758l-186 -162h-77l133 173z" />
    <glyph glyph-name="upsilondieresis" unicode="&#x3cb;" horiz-adv-x="627" 
d="M569 542v-323c0 -143 -123 -226 -256 -226c-123 0 -255 77 -255 226v323h120v-300c0 -92 49 -148 135 -148c92 0 135 61 135 148v300h121zM405 721c32 0 59 -26 59 -58s-27 -59 -59 -59s-59 27 -59 59s27 58 59 58zM218 721c32 0 58 -26 58 -58s-26 -59 -58 -59
c-33 0 -59 27 -59 59s26 58 59 58z" />
    <glyph glyph-name="upsilondieresistonos" unicode="&#x3b0;" horiz-adv-x="627" 
d="M569 542v-323c0 -143 -123 -226 -256 -226c-123 0 -255 77 -255 226v323h120v-300c0 -92 49 -148 135 -148c92 0 135 61 135 148v300h121zM150 714c32 0 58 -26 58 -59c0 -32 -26 -58 -58 -58c-33 0 -59 26 -59 58c0 33 26 59 59 59zM486 714c32 0 58 -26 58 -59
c0 -32 -26 -58 -58 -58c-33 0 -59 26 -59 58c0 33 26 59 59 59zM266 589l56 200l92 -20l-83 -180h-65z" />
    <glyph glyph-name="Amacron" unicode="&#x100;" horiz-adv-x="757" 
d="M614 0l-70 156h-332l-68 -156h-130l333 705h63l333 -705h-129zM378 532l-122 -276h245zM220 772v77h316v-77h-316z" />
    <glyph glyph-name="Abreve" unicode="&#x102;" horiz-adv-x="757" 
d="M614 0l-70 156h-332l-68 -156h-130l333 705h63l333 -705h-129zM378 532l-122 -276h245zM378 761c-97 0 -163 46 -171 144l74 6c10 -49 41 -75 97 -75s88 26 97 75l75 -6c-8 -98 -75 -144 -172 -144z" />
    <glyph glyph-name="Aogonek" unicode="&#x104;" horiz-adv-x="757" 
d="M614 0l-70 156h-332l-68 -156h-130l333 705h63l333 -705h-1c-7 -9 -42 -45 -42 -72c0 -22 14 -36 35 -39c12 -1 21 -1 36 1l2 -58c-20 -3 -38 -5 -56 -5c-67 0 -103 29 -103 83c0 36 32 75 47 90h-47zM378 532l-122 -276h245z" />
    <glyph glyph-name="amacron" unicode="&#x101;" 
d="M483 542h120v-542h-120v45c-46 -32 -104 -52 -168 -52c-168 0 -272 134 -272 280s104 280 272 280c61 0 122 -20 168 -51v40zM483 151v242c-37 34 -89 54 -148 54c-106 0 -177 -81 -177 -174s72 -175 177 -175c60 0 112 20 148 53zM176 631v77h316v-77h-316z" />
    <glyph glyph-name="abreve" unicode="&#x103;" 
d="M483 542h120v-542h-120v45c-46 -32 -104 -52 -168 -52c-168 0 -272 134 -272 280s104 280 272 280c61 0 122 -20 168 -51v40zM483 151v242c-37 34 -89 54 -148 54c-106 0 -177 -81 -177 -174s72 -175 177 -175c60 0 112 20 148 53zM335 620c-97 0 -163 46 -171 144l74 6
c10 -49 41 -75 97 -75s88 26 97 75l75 -6c-8 -98 -75 -144 -172 -144z" />
    <glyph glyph-name="aogonek" unicode="&#x105;" 
d="M632 -110l2 -58c-20 -3 -38 -5 -56 -5c-67 0 -103 29 -103 83c0 36 32 75 47 90h-39v45c-46 -32 -104 -52 -168 -52c-168 0 -272 134 -272 280s104 280 272 280c61 0 122 -20 168 -51v40h120v-542c-7 -9 -42 -45 -42 -72c0 -22 14 -36 35 -39c12 -1 21 -1 36 1zM483 151
v242c-37 34 -89 54 -148 54c-106 0 -177 -81 -177 -174s72 -175 177 -175c60 0 112 20 148 53z" />
    <glyph glyph-name="Ccircumflex" unicode="&#x108;" horiz-adv-x="747" 
d="M419 106c80 0 151 39 195 99l95 -78c-68 -82 -173 -134 -290 -134c-205 0 -372 161 -372 359s167 360 372 360c117 0 222 -53 290 -135l-95 -78c-44 60 -115 100 -195 100c-134 0 -245 -102 -245 -247c0 -143 111 -246 245 -246zM231 752l145 151h74l146 -151h-86l-97 91
l-97 -91h-85z" />
    <glyph glyph-name="Cacute" unicode="&#x106;" horiz-adv-x="747" 
d="M419 106c80 0 151 39 195 99l95 -78c-68 -82 -173 -134 -290 -134c-205 0 -372 161 -372 359s167 360 372 360c117 0 222 -53 290 -135l-95 -78c-44 60 -115 100 -195 100c-134 0 -245 -102 -245 -247c0 -143 111 -246 245 -246zM634 913l-181 -161h-76l127 172z" />
    <glyph glyph-name="Cdotaccent" unicode="&#x10a;" horiz-adv-x="747" 
d="M419 106c80 0 151 39 195 99l95 -78c-68 -82 -173 -134 -290 -134c-205 0 -372 161 -372 359s167 360 372 360c117 0 222 -53 290 -135l-95 -78c-44 60 -115 100 -195 100c-134 0 -245 -102 -245 -247c0 -143 111 -246 245 -246zM417 872c32 0 58 -26 58 -58
s-26 -59 -58 -59c-33 0 -59 27 -59 59s26 58 59 58z" />
    <glyph glyph-name="Ccaron" unicode="&#x10c;" horiz-adv-x="747" 
d="M419 106c80 0 151 39 195 99l95 -78c-68 -82 -173 -134 -290 -134c-205 0 -372 161 -372 359s167 360 372 360c117 0 222 -53 290 -135l-95 -78c-44 60 -115 100 -195 100c-134 0 -245 -102 -245 -247c0 -143 111 -246 245 -246zM380 752l-145 151h85l97 -92l97 92h86
l-146 -151h-74z" />
    <glyph glyph-name="ccircumflex" unicode="&#x109;" horiz-adv-x="578" 
d="M466 168l76 -70c-49 -65 -124 -105 -207 -105c-163 0 -296 125 -296 279c0 155 133 280 296 280c86 0 160 -40 209 -104l-78 -70c-29 42 -77 69 -131 69c-99 0 -179 -78 -179 -175c0 -96 80 -174 179 -174c53 0 101 27 131 70zM141 611l145 151h74l146 -151h-86l-97 91
l-97 -91h-85z" />
    <glyph glyph-name="cacute" unicode="&#x107;" horiz-adv-x="578" 
d="M466 168l76 -70c-49 -65 -124 -105 -207 -105c-163 0 -296 125 -296 279c0 155 133 280 296 280c86 0 160 -40 209 -104l-78 -70c-29 42 -77 69 -131 69c-99 0 -179 -78 -179 -175c0 -96 80 -174 179 -174c53 0 101 27 131 70zM549 772l-181 -161h-76l127 172z" />
    <glyph glyph-name="cdotaccent" unicode="&#x10b;" horiz-adv-x="578" 
d="M466 168l76 -70c-49 -65 -124 -105 -207 -105c-163 0 -296 125 -296 279c0 155 133 280 296 280c86 0 160 -40 209 -104l-78 -70c-29 42 -77 69 -131 69c-99 0 -179 -78 -179 -175c0 -96 80 -174 179 -174c53 0 101 27 131 70zM332 731c32 0 58 -26 58 -58
s-26 -59 -58 -59c-33 0 -59 27 -59 59s26 58 59 58z" />
    <glyph glyph-name="ccaron" unicode="&#x10d;" horiz-adv-x="578" 
d="M466 168l76 -70c-49 -65 -124 -105 -207 -105c-163 0 -296 125 -296 279c0 155 133 280 296 280c86 0 160 -40 209 -104l-78 -70c-29 42 -77 69 -131 69c-99 0 -179 -78 -179 -175c0 -96 80 -174 179 -174c53 0 101 27 131 70zM290 611l-145 151h85l97 -92l97 92h86
l-146 -151h-74z" />
    <glyph glyph-name="Dcroat" unicode="&#x110;" horiz-adv-x="793" 
d="M32 303v99h92v303h267c196 0 355 -158 355 -353c0 -187 -147 -352 -332 -352h-290v303h-92zM243 110h160c122 0 221 113 221 242c0 134 -104 243 -233 243h-148v-193h162v-99h-162v-193zM165 772v77h316v-77h-316z" />
    <glyph glyph-name="Dcaron" unicode="&#x10e;" horiz-adv-x="747" 
d="M700 352c0 -187 -147 -352 -332 -352h-291v705h268c196 0 355 -158 355 -353zM197 110h160c121 0 221 113 221 242c0 134 -105 243 -233 243h-148v-485zM287 752l-145 151h85l97 -92l97 92h86l-146 -151h-74z" />
    <glyph glyph-name="dcaron" unicode="&#x10f;" horiz-adv-x="796" 
d="M486 754h119v-754h-119v41c-46 -31 -107 -49 -169 -49c-152 0 -276 116 -276 280c0 167 124 280 276 280c63 0 122 -18 169 -47v249zM337 98c59 0 112 20 149 53v243c-37 33 -89 53 -149 53c-101 0 -178 -76 -178 -175c0 -102 77 -174 178 -174zM731 706
c42 0 67 -32 67 -85c0 -68 -30 -155 -147 -155l-17 48c54 1 83 20 87 61c-31 5 -55 32 -55 65c0 36 30 66 65 66z" />
    <glyph glyph-name="dcroat" unicode="&#x111;" horiz-adv-x="672" 
d="M707 682v-99h-102v-583h-119v41c-46 -31 -107 -49 -169 -49c-152 0 -276 116 -276 280c0 167 124 280 276 280c63 0 122 -18 169 -47v78h-99v99h99v72h119v-72h102zM337 98c59 0 112 20 149 53v243c-37 33 -89 53 -149 53c-101 0 -178 -76 -178 -175
c0 -102 77 -174 178 -174z" />
    <glyph glyph-name="Emacron" unicode="&#x112;" horiz-adv-x="652" 
d="M197 104h410v-104h-530v705h509v-104h-389v-209h327v-100h-327v-188zM175 772v77h316v-77h-316z" />
    <glyph glyph-name="Edotaccent" unicode="&#x116;" horiz-adv-x="652" 
d="M197 104h410v-104h-530v705h509v-104h-389v-209h327v-100h-327v-188zM334 872c32 0 58 -26 58 -58s-26 -59 -58 -59c-33 0 -59 27 -59 59s26 58 59 58z" />
    <glyph glyph-name="Ebreve" unicode="&#x114;" horiz-adv-x="652" 
d="M197 104h410v-104h-530v705h509v-104h-389v-209h327v-100h-327v-188zM334 761c-97 0 -163 46 -171 144l74 6c10 -49 41 -75 97 -75s88 26 97 75l75 -6c-8 -98 -75 -144 -172 -144z" />
    <glyph glyph-name="Ecaron" unicode="&#x11a;" horiz-adv-x="652" 
d="M197 104h410v-104h-530v705h509v-104h-389v-209h327v-100h-327v-188zM297 752l-145 151h85l97 -92l97 92h86l-146 -151h-74z" />
    <glyph glyph-name="Eogonek" unicode="&#x118;" horiz-adv-x="652" 
d="M636 -110l2 -58c-20 -3 -38 -5 -56 -5c-67 0 -103 29 -103 83c0 36 32 75 47 90h-449v705h509v-104h-389v-209h327v-100h-327v-188h410v-104c-7 -9 -42 -45 -42 -72c0 -22 14 -36 35 -39c12 -1 21 -1 36 1z" />
    <glyph glyph-name="emacron" unicode="&#x113;" horiz-adv-x="620" 
d="M579 237h-420c17 -86 94 -143 175 -143c60 0 116 27 149 72l77 -63c-50 -67 -138 -110 -243 -110c-164 0 -277 125 -277 279c0 155 113 280 277 280c162 0 263 -118 263 -283c0 -14 -1 -32 -1 -32zM317 458c-82 0 -142 -60 -156 -137h304c-7 75 -50 137 -148 137z
M163 631v77h316v-77h-316z" />
    <glyph glyph-name="edotaccent" unicode="&#x117;" horiz-adv-x="620" 
d="M579 237h-420c17 -86 94 -143 175 -143c60 0 116 27 149 72l77 -63c-50 -67 -138 -110 -243 -110c-164 0 -277 125 -277 279c0 155 113 280 277 280c162 0 263 -118 263 -283c0 -14 -1 -32 -1 -32zM317 458c-82 0 -142 -60 -156 -137h304c-7 75 -50 137 -148 137z
M314 731c32 0 58 -26 58 -58s-26 -59 -58 -59c-33 0 -59 27 -59 59s26 58 59 58z" />
    <glyph glyph-name="ebreve" unicode="&#x115;" horiz-adv-x="620" 
d="M579 237h-420c17 -86 94 -143 175 -143c60 0 116 27 149 72l77 -63c-50 -67 -138 -110 -243 -110c-164 0 -277 125 -277 279c0 155 113 280 277 280c162 0 263 -118 263 -283c0 -14 -1 -32 -1 -32zM317 458c-82 0 -142 -60 -156 -137h304c-7 75 -50 137 -148 137z
M314 620c-97 0 -163 46 -171 144l74 6c10 -49 41 -75 97 -75s88 26 97 75l75 -6c-8 -98 -75 -144 -172 -144z" />
    <glyph glyph-name="ecaron" unicode="&#x11b;" horiz-adv-x="620" 
d="M579 237h-420c17 -86 94 -143 175 -143c60 0 116 27 149 72l77 -63c-50 -67 -138 -110 -243 -110c-164 0 -277 125 -277 279c0 155 113 280 277 280c162 0 263 -118 263 -283c0 -14 -1 -32 -1 -32zM317 458c-82 0 -142 -60 -156 -137h304c-7 75 -50 137 -148 137z
M277 611l-145 151h85l97 -92l97 92h86l-146 -151h-74z" />
    <glyph glyph-name="eogonek" unicode="&#x119;" horiz-adv-x="620" 
d="M429 -107l2 -58c-20 -3 -38 -5 -56 -5c-67 0 -103 29 -103 83c0 30 22 61 38 80c-160 4 -270 127 -270 279c0 155 113 280 277 280c162 0 263 -118 263 -283c0 -14 -1 -32 -1 -32h-420c17 -86 94 -143 175 -143c60 0 116 27 149 72l77 -63c-37 -49 -93 -85 -161 -101
c-8 -9 -41 -44 -41 -71c0 -22 14 -36 35 -39c12 -1 21 -1 36 1zM317 458c-82 0 -142 -60 -156 -137h304c-7 75 -50 137 -148 137z" />
    <glyph glyph-name="Gcircumflex" unicode="&#x11c;" horiz-adv-x="784" 
d="M406 347h322v-251c-79 -63 -187 -103 -307 -103c-206 0 -374 161 -374 359s168 359 374 359c117 0 214 -39 281 -101l-77 -84c-50 46 -121 73 -204 73c-137 0 -248 -111 -248 -247c0 -141 111 -253 248 -253c71 0 134 22 183 57v90h-198v101zM232 752l145 151h74
l146 -151h-86l-97 91l-97 -91h-85z" />
    <glyph glyph-name="Gdotaccent" unicode="&#x120;" horiz-adv-x="784" 
d="M406 347h322v-251c-79 -63 -187 -103 -307 -103c-206 0 -374 161 -374 359s168 359 374 359c117 0 214 -39 281 -101l-77 -84c-50 46 -121 73 -204 73c-137 0 -248 -111 -248 -247c0 -141 111 -253 248 -253c71 0 134 22 183 57v90h-198v101zM414 872c32 0 58 -26 58 -58
s-26 -59 -58 -59c-33 0 -59 27 -59 59s26 58 59 58z" />
    <glyph glyph-name="Gbreve" unicode="&#x11e;" horiz-adv-x="784" 
d="M406 347h322v-251c-79 -63 -187 -103 -307 -103c-206 0 -374 161 -374 359s168 359 374 359c117 0 214 -39 281 -101l-77 -84c-50 46 -121 73 -204 73c-137 0 -248 -111 -248 -247c0 -141 111 -253 248 -253c71 0 134 22 183 57v90h-198v101zM414 761
c-97 0 -163 46 -171 144l74 6c10 -49 41 -75 97 -75s88 26 97 75l75 -6c-8 -98 -75 -144 -172 -144z" />
    <glyph glyph-name="gcircumflex" unicode="&#x11d;" horiz-adv-x="672" 
d="M485 542h119v-448c0 -138 -79 -282 -278 -282c-131 0 -157 12 -239 35l23 87c63 -17 109 -32 189 -32c113 0 181 69 181 154c-46 -28 -102 -44 -163 -44c-153 0 -277 111 -277 270c0 160 124 270 277 270c61 0 122 -18 168 -48v38zM158 282c0 -97 77 -166 179 -166
c59 0 112 18 148 51v228c-37 33 -89 52 -148 52c-102 0 -179 -72 -179 -165zM154 611l145 151h74l146 -151h-86l-97 91l-97 -91h-85z" />
    <glyph glyph-name="gdotaccent" unicode="&#x121;" horiz-adv-x="672" 
d="M485 542h119v-448c0 -138 -79 -282 -278 -282c-131 0 -157 12 -239 35l23 87c63 -17 109 -32 189 -32c113 0 181 69 181 154c-46 -28 -102 -44 -163 -44c-153 0 -277 111 -277 270c0 160 124 270 277 270c61 0 122 -18 168 -48v38zM158 282c0 -97 77 -166 179 -166
c59 0 112 18 148 51v228c-37 33 -89 52 -148 52c-102 0 -179 -72 -179 -165zM336 731c32 0 58 -26 58 -58s-26 -59 -58 -59c-33 0 -59 27 -59 59s26 58 59 58z" />
    <glyph glyph-name="gbreve" unicode="&#x11f;" horiz-adv-x="672" 
d="M485 542h119v-448c0 -138 -79 -282 -278 -282c-131 0 -157 12 -239 35l23 87c63 -17 109 -32 189 -32c113 0 181 69 181 154c-46 -28 -102 -44 -163 -44c-153 0 -277 111 -277 270c0 160 124 270 277 270c61 0 122 -18 168 -48v38zM158 282c0 -97 77 -166 179 -166
c59 0 112 18 148 51v228c-37 33 -89 52 -148 52c-102 0 -179 -72 -179 -165zM336 620c-97 0 -163 46 -171 144l74 6c10 -49 41 -75 97 -75s88 26 97 75l75 -6c-8 -98 -75 -144 -172 -144z" />
    <glyph glyph-name="Gcommaaccent" unicode="&#x122;" horiz-adv-x="784" 
d="M406 347h322v-251c-79 -63 -187 -103 -307 -103c-206 0 -374 161 -374 359s168 359 374 359c117 0 214 -39 281 -101l-77 -84c-50 46 -121 73 -204 73c-137 0 -248 -111 -248 -247c0 -141 111 -253 248 -253c71 0 134 22 183 57v90h-198v101zM423 -55c42 0 67 -31 67 -84
c0 -68 -30 -155 -148 -155l-16 48c54 1 83 20 87 61c-31 5 -55 31 -55 65c0 36 30 65 65 65z" />
    <glyph glyph-name="gcommaaccent" unicode="&#x123;" horiz-adv-x="672" 
d="M485 542h119v-448c0 -138 -79 -282 -278 -282c-131 0 -157 12 -239 35l23 87c63 -17 109 -32 189 -32c113 0 181 69 181 154c-46 -28 -102 -44 -163 -44c-153 0 -277 111 -277 270c0 160 124 270 277 270c61 0 122 -18 168 -48v38zM158 282c0 -97 77 -166 179 -166
c59 0 112 18 148 51v228c-37 33 -89 52 -148 52c-102 0 -179 -72 -179 -165zM329 623c-42 0 -67 31 -67 84c0 68 30 155 148 155l16 -48c-54 -1 -83 -20 -87 -61c31 -5 55 -31 55 -65c0 -36 -30 -65 -65 -65z" />
    <glyph glyph-name="Hcircumflex" unicode="&#x124;" horiz-adv-x="745" 
d="M548 705h120v-705h-120v251h-351v-251h-120v705h120v-350h351v350zM199 752l145 151h74l146 -151h-86l-97 91l-97 -91h-85z" />
    <glyph glyph-name="hcircumflex" unicode="&#x125;" horiz-adv-x="636" 
d="M344 552c154 0 233 -76 233 -248v-304h-120v304c0 95 -50 143 -133 143c-57 0 -102 -18 -137 -48v-399h-120v754h35l143 149h74l146 -151h-86l-97 91l-95 -89v-248c42 30 97 46 157 46z" />
    <glyph glyph-name="Hbar" unicode="&#x126;" horiz-adv-x="745" 
d="M43 555v81h34v69h120v-69h351v69h120v-69h33v-81h-33v-555h-120v251h-351v-251h-120v555h-34zM197 355h351v200h-351v-200z" />
    <glyph glyph-name="hbar" unicode="&#x127;" horiz-adv-x="636" 
d="M-7 555v81h74v118h120v-118h74v-81h-74v-49c42 30 97 46 157 46c154 0 233 -76 233 -248v-304h-120v304c0 95 -50 143 -133 143c-57 0 -102 -18 -137 -48v-399h-120v555h-74z" />
    <glyph glyph-name="Itilde" unicode="&#x128;" horiz-adv-x="282" 
d="M203 705v-705h-124v705h124zM1 758l-57 6c5 92 51 144 116 144c61 0 118 -43 160 -43c30 0 55 25 66 66l56 -7c-5 -90 -54 -144 -111 -144c-60 0 -120 44 -160 44c-36 0 -58 -26 -70 -66z" />
    <glyph glyph-name="Imacron" unicode="&#x12a;" horiz-adv-x="282" 
d="M203 705v-705h-124v705h124zM-17 785v77h316v-77h-316z" />
    <glyph glyph-name="Idotaccent" unicode="&#x130;" horiz-adv-x="282" 
d="M203 705v-705h-124v705h124zM142 885c32 0 58 -26 58 -58s-26 -59 -58 -59c-33 0 -59 27 -59 59s26 58 59 58z" />
    <glyph glyph-name="Ibreve" unicode="&#x12c;" horiz-adv-x="282" 
d="M203 705v-705h-124v705h124zM141 774c-97 0 -163 46 -171 144l74 6c10 -49 41 -75 97 -75s88 26 97 75l75 -6c-8 -98 -75 -144 -172 -144z" />
    <glyph glyph-name="Iogonek" unicode="&#x12e;" horiz-adv-x="282" 
d="M232 -110l2 -58c-20 -3 -38 -5 -56 -5c-67 0 -103 29 -103 83c0 36 32 75 47 90h-43v705h124v-705c-7 -9 -42 -45 -42 -72c0 -22 14 -36 35 -39c12 -1 21 -1 36 1z" />
    <glyph glyph-name="itilde" unicode="&#x129;" horiz-adv-x="261" 
d="M-11 594l-57 6c5 92 51 144 116 144c61 0 118 -43 160 -43c30 0 55 25 66 66l56 -7c-5 -90 -54 -144 -111 -144c-60 0 -120 44 -160 44c-36 0 -58 -26 -70 -66zM70 0v542h120v-542h-120z" />
    <glyph glyph-name="imacron" unicode="&#x12b;" horiz-adv-x="261" 
d="M-28 621v77h316v-77h-316zM70 0v542h120v-542h-120z" />
    <glyph glyph-name="ibreve" unicode="&#x12d;" horiz-adv-x="261" 
d="M130 610c-97 0 -163 46 -171 144l74 6c10 -49 41 -75 97 -75s88 26 97 75l75 -6c-8 -98 -75 -144 -172 -144zM70 0v542h120v-542h-120z" />
    <glyph glyph-name="iogonek" unicode="&#x12f;" horiz-adv-x="261" 
d="M70 0v542h120v-542c-7 -9 -42 -45 -42 -72c0 -22 14 -36 35 -39c12 -1 21 -1 36 1l2 -58c-20 -3 -38 -5 -56 -5c-67 0 -103 29 -103 83c0 36 32 75 47 90h-39zM130 614c-39 0 -70 31 -70 69c0 39 31 70 70 70c38 0 69 -31 69 -70c0 -38 -31 -69 -69 -69z" />
    <glyph glyph-name="IJ" unicode="&#x132;" horiz-adv-x="865" 
d="M203 705v-705h-124v705h124zM678 705h123v-417c0 -174 -80 -295 -252 -295c-127 0 -232 95 -246 219l106 10c14 -68 65 -117 137 -117c84 0 132 65 132 150v450z" />
    <glyph glyph-name="ij" unicode="&#x133;" horiz-adv-x="523" 
d="M70 0v542h120v-542h-120zM130 614c-39 0 -70 31 -70 69c0 39 31 70 70 70c38 0 69 -31 69 -70c0 -38 -31 -69 -69 -69zM332 35v507h119v-562c0 -111 -72 -168 -161 -168c-31 0 -56 3 -74 7v94c6 0 14 -1 22 -1c71 0 94 33 94 123zM391 614c-39 0 -70 31 -70 69
c0 39 31 70 70 70c38 0 69 -31 69 -70c0 -38 -31 -69 -69 -69z" />
    <glyph glyph-name="Jcircumflex" unicode="&#x134;" horiz-adv-x="584" 
d="M393 705h123v-417c0 -174 -80 -295 -252 -295c-127 0 -232 95 -246 219l106 10c14 -68 65 -117 137 -117c84 0 132 65 132 150v450zM132 752l145 151h74l146 -151h-86l-97 91l-97 -91h-85z" />
    <glyph glyph-name="jcircumflex" unicode="&#x135;" horiz-adv-x="261" 
d="M70 35v507h119v-562c0 -111 -72 -168 -161 -168c-31 0 -56 3 -74 7v94c6 0 14 -1 22 -1c71 0 94 33 94 123zM-51 611l145 151h74l146 -151h-86l-97 91l-97 -91h-85z" />
    <glyph glyph-name="Kcommaaccent" unicode="&#x136;" horiz-adv-x="709" 
d="M372 358l318 -358h-162l-236 267l-95 -104v-163h-120v705h120v-371l335 371h149zM343 -55c42 0 67 -31 67 -84c0 -68 -30 -155 -148 -155l-16 48c54 1 83 20 87 61c-31 5 -55 31 -55 65c0 36 30 65 65 65z" />
    <glyph glyph-name="kcommaaccent" unicode="&#x137;" horiz-adv-x="607" 
d="M393 332l204 -332h-133l-151 241l-126 -123v-118h-120v754h120v-478l266 266h141zM308 -55c42 0 67 -31 67 -84c0 -68 -30 -155 -148 -155l-16 48c54 1 83 20 87 61c-31 5 -55 31 -55 65c0 36 30 65 65 65z" />
    <glyph glyph-name="kgreenlandic" unicode="&#x138;" horiz-adv-x="607" 
d="M393 332l204 -332h-133l-151 241l-126 -123v-118h-120v542h120v-266l266 266h141z" />
    <glyph glyph-name="Lacute" unicode="&#x139;" horiz-adv-x="605" 
d="M200 101h373v-101h-496v705h123v-604zM340 913l-181 -161h-76l127 172z" />
    <glyph glyph-name="lacute" unicode="&#x13a;" horiz-adv-x="260" 
d="M70 0v754h119v-754h-119zM353 962l-181 -161h-76l127 172z" />
    <glyph glyph-name="Lcommaaccent" unicode="&#x13b;" horiz-adv-x="605" 
d="M200 101h373v-101h-496v705h123v-604zM323 -55c42 0 67 -31 67 -84c0 -68 -30 -155 -148 -155l-16 48c54 1 83 20 87 61c-31 5 -55 31 -55 65c0 36 30 65 65 65z" />
    <glyph glyph-name="lcommaaccent" unicode="&#x13c;" horiz-adv-x="260" 
d="M70 0v754h119v-754h-119zM124 -55c42 0 67 -31 67 -84c0 -68 -30 -155 -148 -155l-16 48c54 1 83 20 87 61c-31 5 -55 31 -55 65c0 36 30 65 65 65z" />
    <glyph glyph-name="Ldot" unicode="&#x13f;" horiz-adv-x="605" 
d="M200 101h373v-101h-496v705h123v-604zM406 514c0 -39 -31 -70 -70 -70s-70 31 -70 70s31 70 70 70s70 -31 70 -70z" />
    <glyph glyph-name="ldot" unicode="&#x140;" horiz-adv-x="394" 
d="M70 0v754h119v-754h-119zM378 514c0 -39 -31 -70 -70 -70s-70 31 -70 70s31 70 70 70s70 -31 70 -70z" />
    <glyph glyph-name="Lcaron" unicode="&#x13d;" horiz-adv-x="605" 
d="M200 101h373v-101h-496v705h123v-604zM362 707c42 0 67 -32 67 -85c0 -68 -30 -155 -147 -155l-17 48c54 1 83 20 87 61c-31 5 -55 32 -55 65c0 36 30 66 65 66z" />
    <glyph glyph-name="lcaron" unicode="&#x13e;" horiz-adv-x="412" 
d="M70 0v754h119v-754h-119zM346 706c42 0 67 -32 67 -85c0 -68 -30 -155 -147 -155l-17 48c54 1 83 20 87 61c-31 5 -55 32 -55 65c0 36 30 66 65 66z" />
    <glyph glyph-name="Nacute" unicode="&#x143;" horiz-adv-x="777" 
d="M577 705h123v-705h-61l-439 483v-483h-123v705h61l439 -483v483zM607 913l-181 -161h-76l127 172z" />
    <glyph glyph-name="Ncaron" unicode="&#x147;" horiz-adv-x="777" 
d="M577 705h123v-705h-61l-439 483v-483h-123v705h61l439 -483v483zM349 752l-145 151h85l97 -92l97 92h86l-146 -151h-74z" />
    <glyph glyph-name="nacute" unicode="&#x144;" horiz-adv-x="637" 
d="M344 552c154 0 233 -76 233 -248v-304h-120v304c0 95 -50 143 -133 143c-57 0 -102 -18 -137 -50v-397h-120v542h120v-41c42 33 97 51 157 51zM534 762l-181 -161h-76l127 172z" />
    <glyph glyph-name="ncaron" unicode="&#x148;" horiz-adv-x="637" 
d="M344 552c154 0 233 -76 233 -248v-304h-120v304c0 95 -50 143 -133 143c-57 0 -102 -18 -137 -50v-397h-120v542h120v-41c42 33 97 51 157 51zM276 601l-145 151h85l97 -92l97 92h86l-146 -151h-74z" />
    <glyph glyph-name="Ncommaaccent" unicode="&#x145;" horiz-adv-x="777" 
d="M577 705h123v-705h-61l-439 483v-483h-123v705h61l439 -483v483zM391 -55c42 0 67 -31 67 -84c0 -68 -30 -155 -148 -155l-16 48c54 1 83 20 87 61c-31 5 -55 31 -55 65c0 36 30 65 65 65z" />
    <glyph glyph-name="ncommaaccent" unicode="&#x146;" horiz-adv-x="637" 
d="M344 552c154 0 233 -76 233 -248v-304h-120v304c0 95 -50 143 -133 143c-57 0 -102 -18 -137 -50v-397h-120v542h120v-41c42 33 97 51 157 51zM326 -55c42 0 67 -31 67 -84c0 -68 -30 -155 -148 -155l-16 48c54 1 83 20 87 61c-31 5 -55 31 -55 65c0 36 30 65 65 65z" />
    <glyph glyph-name="napostrophe" unicode="&#x149;" horiz-adv-x="637" 
d="M344 552c154 0 233 -76 233 -248v-304h-120v304c0 95 -50 143 -133 143c-57 0 -102 -18 -137 -50v-397h-120v542h120v-41c42 33 97 51 157 51zM145 841c42 0 67 -31 67 -84c0 -68 -30 -155 -148 -155l-16 48c54 1 83 20 87 61c-31 5 -55 31 -55 65c0 36 30 65 65 65z" />
    <glyph glyph-name="Eng" unicode="&#x14a;" horiz-adv-x="777" 
d="M577 705h123v-689c0 -170 -84 -285 -252 -285c-127 0 -232 95 -247 219l107 10c13 -68 65 -117 137 -117c123 0 137 108 132 218l-377 426v-487h-123v705h61l439 -487v487z" />
    <glyph glyph-name="eng" unicode="&#x14b;" horiz-adv-x="637" 
d="M344 552c154 0 233 -76 233 -248v-324c0 -111 -73 -168 -161 -168c-32 0 -56 3 -75 7v94c7 0 14 -1 22 -1c65 0 94 29 94 101v291c0 96 -50 143 -133 143c-57 0 -102 -18 -137 -50v-397h-120v542h120v-41c42 33 97 51 157 51z" />
    <glyph glyph-name="Omacron" unicode="&#x14c;" horiz-adv-x="843" 
d="M421 711c207 0 374 -161 374 -359s-167 -359 -374 -359s-374 161 -374 359s167 359 374 359zM421 105c137 0 248 110 248 247c0 136 -111 247 -248 247s-248 -111 -248 -247c0 -137 111 -247 248 -247zM259 772v77h316v-77h-316z" />
    <glyph glyph-name="Obreve" unicode="&#x14e;" horiz-adv-x="843" 
d="M421 711c207 0 374 -161 374 -359s-167 -359 -374 -359s-374 161 -374 359s167 359 374 359zM421 105c137 0 248 110 248 247c0 136 -111 247 -248 247s-248 -111 -248 -247c0 -137 111 -247 248 -247zM418 761c-97 0 -163 46 -171 144l74 6c10 -49 41 -75 97 -75
s88 26 97 75l75 -6c-8 -98 -75 -144 -172 -144z" />
    <glyph glyph-name="Ohungarumlaut" unicode="&#x150;" horiz-adv-x="843" 
d="M421 711c207 0 374 -161 374 -359s-167 -359 -374 -359s-374 161 -374 359s167 359 374 359zM421 105c137 0 248 110 248 247c0 136 -111 247 -248 247s-248 -111 -248 -247c0 -137 111 -247 248 -247zM387 925l103 -35l-115 -133h-83zM458 757l96 168l109 -37l-122 -131
h-83z" />
    <glyph glyph-name="omacron" unicode="&#x14d;" 
d="M334 552c163 0 296 -125 296 -280c0 -154 -133 -279 -296 -279s-296 125 -296 279c0 155 133 280 296 280zM334 98c99 0 179 78 179 174c0 97 -80 175 -179 175s-179 -78 -179 -175c0 -96 80 -174 179 -174zM176 621v77h316v-77h-316z" />
    <glyph glyph-name="obreve" unicode="&#x14f;" 
d="M334 552c163 0 296 -125 296 -280c0 -154 -133 -279 -296 -279s-296 125 -296 279c0 155 133 280 296 280zM334 98c99 0 179 78 179 174c0 97 -80 175 -179 175s-179 -78 -179 -175c0 -96 80 -174 179 -174zM333 610c-97 0 -163 46 -171 144l74 6c10 -49 41 -75 97 -75
s88 26 97 75l75 -6c-8 -98 -75 -144 -172 -144z" />
    <glyph glyph-name="ohungarumlaut" unicode="&#x151;" 
d="M334 552c163 0 296 -125 296 -280c0 -154 -133 -279 -296 -279s-296 125 -296 279c0 155 133 280 296 280zM334 98c99 0 179 78 179 174c0 97 -80 175 -179 175s-179 -78 -179 -175c0 -96 80 -174 179 -174zM300 774l103 -35l-115 -133h-83zM371 606l96 168l109 -37
l-122 -131h-83z" />
    <glyph glyph-name="Racute" unicode="&#x154;" horiz-adv-x="696" 
d="M524 0l-144 196c-11 -1 -23 -1 -34 -1h-146v-195h-123v705h304c201 0 270 -119 270 -248c0 -122 -53 -201 -149 -237l170 -220h-148zM200 601v-307h141c119 0 181 59 181 155c0 79 -41 152 -160 152h-162zM553 913l-181 -161h-76l127 172z" />
    <glyph glyph-name="Rcaron" unicode="&#x158;" horiz-adv-x="696" 
d="M524 0l-144 196c-11 -1 -23 -1 -34 -1h-146v-195h-123v705h304c201 0 270 -119 270 -248c0 -122 -53 -201 -149 -237l170 -220h-148zM200 601v-307h141c119 0 181 59 181 155c0 79 -41 152 -160 152h-162zM300 752l-145 151h85l97 -92l97 92h86l-146 -151h-74z" />
    <glyph glyph-name="racute" unicode="&#x155;" horiz-adv-x="436" 
d="M187 542v-88c35 58 95 98 174 98c14 0 30 -3 46 -10l-5 -123c-25 8 -48 9 -69 9c-101 0 -144 -77 -146 -162v-266h-119v542h119zM346 772l-181 -161h-76l127 172z" />
    <glyph glyph-name="rcaron" unicode="&#x159;" horiz-adv-x="436" 
d="M187 542v-88c35 58 95 98 174 98c14 0 30 -3 46 -10l-5 -123c-25 8 -48 9 -69 9c-101 0 -144 -77 -146 -162v-266h-119v542h119zM190 611l-145 151h85l97 -92l97 92h86l-146 -151h-74z" />
    <glyph glyph-name="Rcommaaccent" unicode="&#x156;" horiz-adv-x="696" 
d="M524 0l-144 196c-11 -1 -23 -1 -34 -1h-146v-195h-123v705h304c201 0 270 -119 270 -248c0 -122 -53 -201 -149 -237l170 -220h-148zM200 601v-307h141c119 0 181 59 181 155c0 79 -41 152 -160 152h-162zM356 -55c42 0 67 -31 67 -84c0 -68 -30 -155 -148 -155l-16 48
c54 1 83 20 87 61c-31 5 -55 31 -55 65c0 36 30 65 65 65z" />
    <glyph glyph-name="rcommaaccent" unicode="&#x157;" horiz-adv-x="436" 
d="M187 542v-88c35 58 95 98 174 98c14 0 30 -3 46 -10l-5 -123c-25 8 -48 9 -69 9c-101 0 -144 -77 -146 -162v-266h-119v542h119zM128 -55c42 0 67 -31 67 -84c0 -68 -30 -155 -148 -155l-16 48c54 1 83 20 87 61c-31 5 -55 31 -55 65c0 36 30 65 65 65z" />
    <glyph glyph-name="Scircumflex" unicode="&#x15c;" horiz-adv-x="644" 
d="M347 407c148 -33 253 -79 253 -206c0 -132 -107 -210 -268 -210c-119 0 -177 11 -289 67l45 93c96 -46 157 -56 248 -56c86 0 140 35 140 96c0 58 -57 83 -162 108c-145 34 -262 72 -262 208c0 120 97 205 256 205c102 0 198 -26 265 -57l-50 -95c-61 27 -151 48 -218 48
c-82 0 -129 -39 -129 -92c0 -59 61 -83 171 -109zM132 752l145 151h74l146 -151h-86l-97 91l-97 -91h-85z" />
    <glyph glyph-name="Sacute" unicode="&#x15a;" horiz-adv-x="644" 
d="M347 407c148 -33 253 -79 253 -206c0 -132 -107 -210 -268 -210c-119 0 -177 11 -289 67l45 93c96 -46 157 -56 248 -56c86 0 140 35 140 96c0 58 -57 83 -162 108c-145 34 -262 72 -262 208c0 120 97 205 256 205c102 0 198 -26 265 -57l-50 -95c-61 27 -151 48 -218 48
c-82 0 -129 -39 -129 -92c0 -59 61 -83 171 -109zM534 913l-181 -161h-76l127 172z" />
    <glyph glyph-name="Scaron" unicode="&#x160;" horiz-adv-x="644" 
d="M347 407c148 -33 253 -79 253 -206c0 -132 -107 -210 -268 -210c-119 0 -177 11 -289 67l45 93c96 -46 157 -56 248 -56c86 0 140 35 140 96c0 58 -57 83 -162 108c-145 34 -262 72 -262 208c0 120 97 205 256 205c102 0 198 -26 265 -57l-50 -95c-61 27 -151 48 -218 48
c-82 0 -129 -39 -129 -92c0 -59 61 -83 171 -109zM276 752l-145 151h85l97 -92l97 92h86l-146 -151h-74z" />
    <glyph glyph-name="scircumflex" unicode="&#x15d;" horiz-adv-x="524" 
d="M37 44l44 87c66 -28 121 -45 191 -45c76 0 105 33 105 67c0 40 -39 56 -128 75c-117 25 -203 64 -203 164c0 94 83 160 205 160c82 0 150 -19 210 -43l-40 -86c-53 21 -116 35 -172 35c-60 0 -96 -24 -96 -61s40 -54 132 -73c125 -25 201 -67 201 -164
c0 -98 -75 -167 -217 -167c-92 0 -156 15 -232 51zM70 601l145 151h74l146 -151h-86l-97 91l-97 -91h-85z" />
    <glyph glyph-name="sacute" unicode="&#x15b;" horiz-adv-x="524" 
d="M37 44l44 87c66 -28 121 -45 191 -45c76 0 105 33 105 67c0 40 -39 56 -128 75c-117 25 -203 64 -203 164c0 94 83 160 205 160c82 0 150 -19 210 -43l-40 -86c-53 21 -116 35 -172 35c-60 0 -96 -24 -96 -61s40 -54 132 -73c125 -25 201 -67 201 -164
c0 -98 -75 -167 -217 -167c-92 0 -156 15 -232 51zM471 762l-181 -161h-76l127 172z" />
    <glyph glyph-name="scaron" unicode="&#x161;" horiz-adv-x="524" 
d="M37 44l44 87c66 -28 121 -45 191 -45c76 0 105 33 105 67c0 40 -39 56 -128 75c-117 25 -203 64 -203 164c0 94 83 160 205 160c82 0 150 -19 210 -43l-40 -86c-53 21 -116 35 -172 35c-60 0 -96 -24 -96 -61s40 -54 132 -73c125 -25 201 -67 201 -164
c0 -98 -75 -167 -217 -167c-92 0 -156 15 -232 51zM216 601l-145 151h85l97 -92l97 92h86l-146 -151h-74z" />
    <glyph glyph-name="Scedilla" unicode="&#x15e;" horiz-adv-x="644" 
d="M251 -77l55 68c-102 2 -160 15 -263 67l45 93c96 -46 157 -56 248 -56c86 0 140 35 140 96c0 58 -57 83 -162 108c-145 34 -262 72 -262 208c0 120 97 205 256 205c102 0 198 -26 265 -57l-50 -95c-61 27 -151 48 -218 48c-82 0 -129 -39 -129 -92c0 -59 61 -83 171 -109
c148 -33 253 -79 253 -206c0 -118 -85 -192 -217 -207l-22 -49c13 0 38 -19 38 -50c0 -38 -32 -82 -124 -82c-24 0 -61 3 -61 3l-3 43s28 -3 42 -3c42 0 67 16 67 37c0 22 -32 30 -69 30z" />
    <glyph glyph-name="scedilla" unicode="&#x15f;" horiz-adv-x="524" 
d="M183 -77l57 71c-77 3 -135 18 -203 50l44 87c66 -28 121 -45 191 -45c76 0 105 33 105 67c0 40 -39 56 -128 75c-117 25 -203 64 -203 164c0 94 83 160 205 160c82 0 150 -19 210 -43l-40 -86c-53 21 -116 35 -172 35c-60 0 -96 -24 -96 -61s40 -54 132 -73
c125 -25 201 -67 201 -164c0 -87 -59 -151 -171 -164l-22 -51c13 0 38 -19 38 -50c0 -38 -32 -82 -124 -82c-24 0 -61 3 -61 3l-3 43s28 -3 42 -3c42 0 67 16 67 37c0 22 -32 30 -69 30z" />
    <glyph glyph-name="Tcedilla" unicode="&#x162;" horiz-adv-x="660" 
d="M258 -77l62 77h-50v601h-231v104h585v-104h-231v-601h-1l-24 -55c13 0 38 -19 38 -50c0 -38 -32 -82 -124 -82c-24 0 -61 3 -61 3l-3 43s28 -3 42 -3c42 0 67 16 67 37c0 22 -32 30 -69 30z" />
    <glyph glyph-name="tcedilla" unicode="&#x163;" horiz-adv-x="412" 
d="M211 -77l56 70h-3c-89 0 -161 56 -161 168v285h-82v96h82v212h120v-212h163v-96h-163v-224c0 -98 22 -129 92 -129c28 0 50 3 69 6v-88c-5 -2 -18 -7 -39 -11l-24 -55c13 0 38 -19 38 -50c0 -38 -32 -82 -124 -82c-24 0 -61 3 -61 3l-3 43s28 -3 42 -3c42 0 67 16 67 37
c0 22 -32 30 -69 30z" />
    <glyph glyph-name="Tcaron" unicode="&#x164;" horiz-adv-x="660" 
d="M624 705v-104h-231v-601h-123v601h-231v104h585zM296 752l-145 151h85l97 -92l97 92h86l-146 -151h-74z" />
    <glyph glyph-name="tcaron" unicode="&#x165;" horiz-adv-x="412" 
d="M386 446h-163v-224c0 -98 22 -129 92 -129c28 0 50 3 69 6v-88c-9 -3 -48 -18 -120 -18c-89 0 -161 56 -161 168v285h-82v96h82v212h120v-212h163v-96zM439 804c42 0 67 -32 67 -85c0 -68 -30 -155 -147 -155l-17 48c54 1 83 20 87 61c-31 5 -55 32 -55 65
c0 36 30 66 65 66z" />
    <glyph glyph-name="tbar" unicode="&#x167;" horiz-adv-x="412" 
d="M40 288v77h63v81h-82v96h82v212h120v-212h163v-96h-163v-81h133v-77h-133v-66c0 -98 22 -129 92 -129c28 0 50 3 69 6v-88c-9 -3 -48 -18 -120 -18c-89 0 -161 56 -161 168v127h-63z" />
    <glyph glyph-name="Tbar" unicode="&#x166;" horiz-adv-x="660" 
d="M174 335v77h96v189h-231v104h585v-104h-231v-189h97v-77h-97v-335h-123v335h-96z" />
    <glyph glyph-name="Utilde" unicode="&#x168;" horiz-adv-x="756" 
d="M685 705v-422c0 -161 -106 -290 -307 -290c-200 0 -306 128 -306 290v422h120v-392c0 -136 64 -210 186 -210s187 75 187 210v392h120zM238 745l-57 6c5 92 51 144 116 144c61 0 118 -43 160 -43c30 0 55 25 66 66l56 -7c-5 -90 -54 -144 -111 -144
c-60 0 -120 44 -160 44c-36 0 -58 -26 -70 -66z" />
    <glyph glyph-name="Umacron" unicode="&#x16a;" horiz-adv-x="756" 
d="M685 705v-422c0 -161 -106 -290 -307 -290c-200 0 -306 128 -306 290v422h120v-392c0 -136 64 -210 186 -210s187 75 187 210v392h120zM220 772v77h316v-77h-316z" />
    <glyph glyph-name="Ubreve" unicode="&#x16c;" horiz-adv-x="756" 
d="M685 705v-422c0 -161 -106 -290 -307 -290c-200 0 -306 128 -306 290v422h120v-392c0 -136 64 -210 186 -210s187 75 187 210v392h120zM379 761c-97 0 -163 46 -171 144l74 6c10 -49 41 -75 97 -75s88 26 97 75l75 -6c-8 -98 -75 -144 -172 -144z" />
    <glyph glyph-name="Uhungarumlaut" unicode="&#x170;" horiz-adv-x="756" 
d="M685 705v-422c0 -161 -106 -290 -307 -290c-200 0 -306 128 -306 290v422h120v-392c0 -136 64 -210 186 -210s187 75 187 210v392h120zM348 925l103 -35l-115 -133h-83zM419 757l96 168l109 -37l-122 -131h-83z" />
    <glyph glyph-name="Uring" unicode="&#x16e;" horiz-adv-x="756" 
d="M685 705v-422c0 -161 -106 -290 -307 -290c-200 0 -306 128 -306 290v422h120v-392c0 -136 64 -210 186 -210s187 75 187 210v392h120zM273 770c0 56 50 105 106 105s106 -48 106 -105s-50 -105 -106 -105s-106 49 -106 105zM379 713c32 0 57 26 57 58
c0 31 -26 57 -57 57c-32 0 -57 -26 -57 -58c0 -31 25 -57 57 -57z" />
    <glyph glyph-name="Uogonek" unicode="&#x172;" horiz-adv-x="756" 
d="M480 -110l2 -58c-20 -3 -38 -5 -56 -5c-67 0 -103 29 -103 83c0 31 25 65 41 83c-191 6 -292 132 -292 290v422h120v-392c0 -136 64 -210 186 -210s187 75 187 210v392h120v-422c0 -141 -81 -256 -235 -283c-8 -10 -41 -45 -41 -72c0 -22 14 -36 35 -39c12 -1 21 -1 36 1
z" />
    <glyph glyph-name="uring" unicode="&#x16f;" horiz-adv-x="641" 
d="M454 542h120v-542h-120v44c-43 -33 -100 -51 -161 -51c-154 0 -233 76 -233 248v301h119v-301c0 -95 51 -143 134 -143c58 0 105 18 141 50v394zM215 721c0 56 50 105 106 105s106 -48 106 -105s-50 -105 -106 -105s-106 49 -106 105zM321 664c32 0 57 26 57 58
c0 31 -26 57 -57 57c-32 0 -57 -26 -57 -58c0 -31 25 -57 57 -57z" />
    <glyph glyph-name="uogonek" unicode="&#x173;" horiz-adv-x="641" 
d="M603 -110l2 -58c-20 -3 -38 -5 -56 -5c-67 0 -103 29 -103 83c0 36 32 75 47 90h-39v44c-43 -33 -100 -51 -161 -51c-154 0 -233 76 -233 248v301h119v-301c0 -95 51 -143 134 -143c58 0 105 18 141 50v394h120v-542c-7 -9 -42 -45 -42 -72c0 -22 14 -36 35 -39
c12 -1 21 -1 36 1z" />
    <glyph glyph-name="utilde" unicode="&#x169;" horiz-adv-x="641" 
d="M454 542h120v-542h-120v44c-43 -33 -100 -51 -161 -51c-154 0 -233 76 -233 248v301h119v-301c0 -95 51 -143 134 -143c58 0 105 18 141 50v394zM178 594l-57 6c5 92 51 144 116 144c61 0 118 -43 160 -43c30 0 55 25 66 66l56 -7c-5 -90 -54 -144 -111 -144
c-60 0 -120 44 -160 44c-36 0 -58 -26 -70 -66z" />
    <glyph glyph-name="umacron" unicode="&#x16b;" horiz-adv-x="641" 
d="M454 542h120v-542h-120v44c-43 -33 -100 -51 -161 -51c-154 0 -233 76 -233 248v301h119v-301c0 -95 51 -143 134 -143c58 0 105 18 141 50v394zM160 621v77h316v-77h-316z" />
    <glyph glyph-name="ubreve" unicode="&#x16d;" horiz-adv-x="641" 
d="M454 542h120v-542h-120v44c-43 -33 -100 -51 -161 -51c-154 0 -233 76 -233 248v301h119v-301c0 -95 51 -143 134 -143c58 0 105 18 141 50v394zM318 610c-97 0 -163 46 -171 144l74 6c10 -49 41 -75 97 -75s88 26 97 75l75 -6c-8 -98 -75 -144 -172 -144z" />
    <glyph glyph-name="uhungarumlaut" unicode="&#x171;" horiz-adv-x="641" 
d="M454 542h120v-542h-120v44c-43 -33 -100 -51 -161 -51c-154 0 -233 76 -233 248v301h119v-301c0 -95 51 -143 134 -143c58 0 105 18 141 50v394zM285 774l103 -35l-115 -133h-83zM356 606l96 168l109 -37l-122 -131h-83z" />
    <glyph glyph-name="Wcircumflex" unicode="&#x174;" horiz-adv-x="1117" 
d="M1089 705l-276 -705h-51l-206 503l-206 -503h-52l-276 705h133l174 -475l201 475h52l200 -475l174 475h133zM371 752l145 151h74l146 -151h-86l-97 91l-97 -91h-85z" />
    <glyph glyph-name="wcircumflex" unicode="&#x175;" horiz-adv-x="856" 
d="M722 542h119l-205 -542h-60l-148 368l-148 -368h-59l-206 542h119l130 -350l134 350h60l134 -350zM244 592l145 151h74l146 -151h-86l-97 91l-97 -91h-85z" />
    <glyph glyph-name="Ycircumflex" unicode="&#x176;" horiz-adv-x="689" 
d="M538 705h141l-273 -465v-240h-123v240l-272 465h140l194 -336zM163 752l145 151h74l146 -151h-86l-97 91l-97 -91h-85z" />
    <glyph glyph-name="ycircumflex" unicode="&#x177;" horiz-adv-x="618" 
d="M472 542h122l-225 -571c-46 -117 -170 -158 -281 -158c-18 0 -35 0 -50 1l15 88h14c83 0 157 25 189 98h-15l-220 542h126l160 -398h13zM130 601l145 151h74l146 -151h-86l-97 91l-97 -91h-85z" />
    <glyph glyph-name="Zacute" unicode="&#x179;" horiz-adv-x="676" 
d="M630 705v-54l-408 -547h411v-104h-588v52l408 549h-389v104h566zM579 913l-181 -161h-76l127 172z" />
    <glyph glyph-name="Zdotaccent" unicode="&#x17b;" horiz-adv-x="676" 
d="M630 705v-54l-408 -547h411v-104h-588v52l408 549h-389v104h566zM354 872c32 0 58 -26 58 -58s-26 -59 -58 -59c-33 0 -59 27 -59 59s26 58 59 58z" />
    <glyph glyph-name="Zcaron" unicode="&#x17d;" horiz-adv-x="676" 
d="M630 705v-54l-408 -547h411v-104h-588v52l408 549h-389v104h566zM316 752l-145 151h85l97 -92l97 92h86l-146 -151h-74z" />
    <glyph glyph-name="zacute" unicode="&#x17a;" horiz-adv-x="575" 
d="M546 486l-334 -390h328v-96h-506v58l332 388h-313v96h493v-56zM502 762l-181 -161h-76l127 172z" />
    <glyph glyph-name="zdotaccent" unicode="&#x17c;" horiz-adv-x="575" 
d="M546 486l-334 -390h328v-96h-506v58l332 388h-313v96h493v-56zM291 721c32 0 58 -26 58 -58s-26 -59 -58 -59c-33 0 -59 27 -59 59s26 58 59 58z" />
    <glyph glyph-name="zcaron" unicode="&#x17e;" horiz-adv-x="575" 
d="M546 486l-334 -390h328v-96h-506v58l332 388h-313v96h493v-56zM257 601l-145 151h85l97 -92l97 92h86l-146 -151h-74z" />
    <glyph glyph-name="Aringacute" unicode="&#x1fa;" horiz-adv-x="757" 
d="M600 990l-156 -139c25 -19 41 -49 41 -81c0 -41 -26 -78 -61 -95l319 -675h-129l-70 156h-332l-68 -156h-130l319 676c-35 17 -60 54 -60 94c0 55 49 104 104 105l93 126zM378 532l-122 -276h245zM379 713c32 0 57 26 57 58c0 31 -26 57 -57 57c-32 0 -57 -26 -57 -58
c0 -31 25 -57 57 -57z" />
    <glyph glyph-name="aringacute" unicode="&#x1fb;" 
d="M483 542h120v-542h-120v45c-46 -32 -104 -52 -168 -52c-168 0 -272 134 -272 280s104 280 272 280c61 0 122 -20 168 -51v40zM483 151v242c-37 34 -89 54 -148 54c-106 0 -177 -81 -177 -174s72 -175 177 -175c60 0 112 20 148 53zM560 941l-157 -139
c24 -20 40 -49 40 -81c0 -57 -50 -105 -106 -105s-106 49 -106 105s50 105 106 105l93 126zM337 664c32 0 57 26 57 58c0 31 -26 57 -57 57c-32 0 -57 -26 -57 -58c0 -31 25 -57 57 -57z" />
    <glyph glyph-name="AEacute" unicode="&#x1fc;" horiz-adv-x="1026" 
d="M571 104h411v-104h-530v156h-239l-77 -156h-130l361 705h594v-104h-390v-209h328v-100h-328v-188zM426 592l-167 -336h193v336h-26zM682 913l-181 -161h-76l127 172z" />
    <glyph glyph-name="aeacute" unicode="&#x1fd;" horiz-adv-x="1108" 
d="M1068 237h-420c17 -86 94 -143 175 -143c60 0 116 27 149 72l77 -63c-50 -67 -138 -110 -243 -110c-82 0 -151 31 -199 81v-74h-120v45c-47 -32 -104 -52 -169 -52c-152 0 -275 115 -275 279c0 167 123 280 275 280c62 0 123 -19 169 -50v40h120v-71c48 50 117 81 199 81
c162 0 263 -118 263 -283c0 -14 -1 -32 -1 -32zM487 151v242c-37 34 -90 56 -148 56c-102 0 -181 -78 -181 -177c0 -102 79 -176 181 -176c59 0 111 22 148 55zM806 458c-82 0 -142 -60 -156 -137h304c-7 75 -50 137 -148 137zM775 772l-181 -161h-76l127 172z" />
    <glyph glyph-name="Oslashacute" unicode="&#x1fe;" horiz-adv-x="844" 
d="M635 913l-181 -161h-76l127 172zM69 0l86 100c-67 64 -108 154 -108 252c0 198 167 359 374 359c77 0 149 -23 208 -62l48 56h103l-90 -105c64 -64 105 -152 105 -248c0 -198 -167 -359 -374 -359c-76 0 -146 21 -204 59l-45 -52h-103zM173 352c0 -62 24 -117 62 -158
l317 366c-38 24 -83 39 -131 39c-137 0 -248 -111 -248 -247zM421 105c137 0 248 110 248 247c0 59 -23 113 -60 154l-315 -365c36 -23 80 -36 127 -36z" />
    <glyph glyph-name="oslashacute" unicode="&#x1ff;" horiz-adv-x="669" 
d="M548 772l-181 -161h-76l127 172zM47 0l72 81c-50 49 -81 116 -81 191c0 155 133 280 296 280c60 0 117 -17 164 -47l36 41h89l-74 -83c50 -50 81 -117 81 -191c0 -154 -133 -279 -296 -279c-60 0 -116 17 -162 46l-36 -39h-89zM334 98c99 0 179 78 179 174
c0 40 -17 76 -43 103l-224 -253c25 -16 55 -24 88 -24zM155 272c0 -40 16 -77 42 -104l226 254c-25 16 -56 25 -89 25c-99 0 -179 -78 -179 -175z" />
    <glyph glyph-name="Scommaaccent" unicode="&#x218;" horiz-adv-x="644" 
d="M347 407c148 -33 253 -79 253 -206c0 -132 -107 -210 -268 -210c-119 0 -177 11 -289 67l45 93c96 -46 157 -56 248 -56c86 0 140 35 140 96c0 58 -57 83 -162 108c-145 34 -262 72 -262 208c0 120 97 205 256 205c102 0 198 -26 265 -57l-50 -95c-61 27 -151 48 -218 48
c-82 0 -129 -39 -129 -92c0 -59 61 -83 171 -109zM325 -55c42 0 67 -31 67 -84c0 -68 -30 -155 -148 -155l-16 48c54 1 83 20 87 61c-31 5 -55 31 -55 65c0 36 30 65 65 65z" />
    <glyph glyph-name="scommaaccent" unicode="&#x219;" horiz-adv-x="524" 
d="M37 44l44 87c66 -28 121 -45 191 -45c76 0 105 33 105 67c0 40 -39 56 -128 75c-117 25 -203 64 -203 164c0 94 83 160 205 160c82 0 150 -19 210 -43l-40 -86c-53 21 -116 35 -172 35c-60 0 -96 -24 -96 -61s40 -54 132 -73c125 -25 201 -67 201 -164
c0 -98 -75 -167 -217 -167c-92 0 -156 15 -232 51zM269 -55c42 0 67 -31 67 -84c0 -68 -30 -155 -148 -155l-16 48c54 1 83 20 87 61c-31 5 -55 31 -55 65c0 36 30 65 65 65z" />
    <glyph glyph-name="uni021A" unicode="&#x21a;" horiz-adv-x="660" 
d="M624 705v-104h-231v-601h-123v601h-231v104h585zM329 -55c42 0 67 -31 67 -84c0 -68 -30 -155 -148 -155l-16 48c54 1 83 20 87 61c-31 5 -55 31 -55 65c0 36 30 65 65 65z" />
    <glyph glyph-name="uni021B" unicode="&#x21b;" horiz-adv-x="412" 
d="M386 446h-163v-224c0 -98 22 -129 92 -129c28 0 50 3 69 6v-88c-9 -3 -48 -18 -120 -18c-89 0 -161 56 -161 168v285h-82v96h82v212h120v-212h163v-96zM243 -55c42 0 67 -31 67 -84c0 -68 -30 -155 -148 -155l-16 48c54 1 83 20 87 61c-31 5 -55 31 -55 65
c0 36 30 65 65 65z" />
    <glyph glyph-name="dotlessj" unicode="&#x237;" horiz-adv-x="261" 
d="M70 35v507h119v-562c0 -111 -72 -168 -161 -168c-31 0 -56 3 -74 7v94c6 0 14 -1 22 -1c71 0 94 33 94 123z" />
    <glyph glyph-name="Wgrave" unicode="&#x1e80;" horiz-adv-x="1117" 
d="M1089 705l-276 -705h-51l-206 503l-206 -503h-52l-276 705h133l174 -475l201 475h52l200 -475l174 475h133zM517 752l-181 161l130 11l127 -172h-76z" />
    <glyph glyph-name="Wdieresis" unicode="&#x1e84;" horiz-adv-x="1117" 
d="M1089 705l-276 -705h-51l-206 503l-206 -503h-52l-276 705h133l174 -475l201 475h52l200 -475l174 475h133zM647 872c32 0 59 -26 59 -58s-27 -59 -59 -59s-59 27 -59 59s27 58 59 58zM460 872c32 0 58 -26 58 -58s-26 -59 -58 -59c-33 0 -59 27 -59 59s26 58 59 58z" />
    <glyph glyph-name="Wacute" unicode="&#x1e82;" horiz-adv-x="1117" 
d="M1089 705l-276 -705h-51l-206 503l-206 -503h-52l-276 705h133l174 -475l201 475h52l200 -475l174 475h133zM774 913l-181 -161h-76l127 172z" />
    <glyph glyph-name="wgrave" unicode="&#x1e81;" horiz-adv-x="856" 
d="M722 542h119l-205 -542h-60l-148 368l-148 -368h-59l-206 542h119l130 -350l134 350h60l134 -350zM389 592l-181 161l130 11l127 -172h-76z" />
    <glyph glyph-name="wdieresis" unicode="&#x1e85;" horiz-adv-x="856" 
d="M722 542h119l-205 -542h-60l-148 368l-148 -368h-59l-206 542h119l130 -350l134 350h60l134 -350zM521 712c32 0 59 -26 59 -58s-27 -59 -59 -59s-59 27 -59 59s27 58 59 58zM334 712c32 0 58 -26 58 -58s-26 -59 -58 -59c-33 0 -59 27 -59 59s26 58 59 58z" />
    <glyph glyph-name="wacute" unicode="&#x1e83;" horiz-adv-x="856" 
d="M722 542h119l-205 -542h-60l-148 368l-148 -368h-59l-206 542h119l130 -350l134 350h60l134 -350zM649 753l-181 -161h-76l127 172z" />
    <glyph glyph-name="Ygrave" unicode="&#x1ef2;" horiz-adv-x="689" 
d="M538 705h141l-273 -465v-240h-123v240l-272 465h140l194 -336zM304 752l-181 161l130 11l127 -172h-76z" />
    <glyph glyph-name="ygrave" unicode="&#x1ef3;" horiz-adv-x="618" 
d="M472 542h122l-225 -571c-46 -117 -170 -158 -281 -158c-18 0 -35 0 -50 1l15 88h14c83 0 157 25 189 98h-15l-220 542h126l160 -398h13zM277 601l-181 161l130 11l127 -172h-76z" />
    </font>
</defs>
</svg>
